<?xml version="1.0" standalone="no"?><!DOCTYPE svg PUBLIC "-//W3C//DTD SVG 1.1//EN" "http://www.w3.org/Graphics/SVG/1.1/DTD/svg11.dtd" ><svg xmlns="http://www.w3.org/2000/svg"><metadata></metadata><defs><font id="fonteditor" horiz-adv-x="1000"><font-face font-family="`nÑOS CN Regular" font-weight="400" font-stretch="normal" units-per-em="1000" panose-1="2 11 5 0 0 0 0 0 0 0" ascent="880" descent="-120" x-height="0" bbox="0 -231 972 880" underline-thickness="0" underline-position="0" unicode-range="U+0026-ff0c" /><missing-glyph horiz-adv-x="1000" d="M100 880 L900 880 L900 -120 L100 -120 L100 880 ZM818 830 L182 830 L500 421 L818 830 ZM850 -29 L850 789 L532 380 L850 -29 ZM818 -70 L500 339 L182 -70 L818 -70 ZM150 -29 L468 380 L150 789 L150 -29 Z" /><glyph glyph-name="ampersand" unicode="&amp;" d="M58 193 Q58 306 183 379 L207 393 L185 416 Q149 453 130.5 488 Q112 523 112 566 Q112 641 165 688 Q218 735 297 735 Q378 735 429.5 686.5 Q481 638 481 566 Q481 470 382 406 L341 379 L483 236 L545 434 L638 434 L552 167 L716 2 L715 0 L601 0 L515 86 Q484 42 429.5 15.5 Q375 -11 300 -11 Q242 -11 195 5.5 Q148 22 118.5 51 Q89 80 73.5 116 Q58 152 58 193 ZM148 196 Q148 144 189.5 107.5 Q231 71 303 71 Q406 71 449 151 L266 335 L228 313 Q148 266 148 196 ZM202 565 Q202 541 214 518.5 Q226 496 252 469 L283 437 L328 467 Q391 508 391 564 Q391 604 363.5 628 Q336 652 295 652 Q252 652 227 627 Q202 602 202 565 Z" /><glyph glyph-name="period" unicode="." d="M82 55 Q82 82 101.5 101.5 Q121 121 148 121 Q175 121 194.5 101.5 Q214 82 214 55 Q214 28 194.5 8.5 Q175 -11 148 -11 Q121 -11 101.5 8.5 Q82 28 82 55 Z" /><glyph glyph-name="slash" unicode="/" d="M18 -38 L354 762 L428 762 L92 -38 L18 -38 Z" /><glyph glyph-name="zero" unicode="0" d="M62 362 Q62 553 131 647 Q163 690 209 712.5 Q255 735 309 735 Q363 735 409 712.5 Q455 690 487 647 Q556 552 556 362 Q556 172 487 77 Q455 34 409 11.5 Q363 -11 309 -11 Q255 -11 209 11.5 Q163 34 131 77 Q62 171 62 362 ZM157 362 Q157 193 209 126 Q248 77 309 77 Q370 77 409 126 Q461 193 461 362 Q461 531 409 598 Q370 647 309 647 Q248 647 209 598 Q157 531 157 362 Z" /><glyph glyph-name="one" unicode="1" d="M77 543 L77 634 L338 735 L338 0 L243 0 L243 607 L77 543 Z" /><glyph glyph-name="two" unicode="2" d="M24 2 L263 289 Q328 366 356 417.5 Q384 469 384 518 Q384 580 345 613.5 Q306 647 241 647 Q201 647 158.5 633.5 Q116 620 79 593 L79 689 Q110 709 153.5 722 Q197 735 246 735 Q312 735 363.5 711.5 Q415 688 447 639 Q479 590 479 523 Q479 454 445 389 Q411 324 340 239 L214 88 L215 86 L505 86 L505 0 L25 0 L24 2 Z" /><glyph glyph-name="three" unicode="3" d="M53 56 L53 165 Q143 77 251 77 Q317 77 358 110.5 Q399 144 399 200 Q399 255 359.5 288 Q320 321 245 321 L177 321 L177 405 L242 405 Q309 405 346.5 438.5 Q384 472 384 526 Q384 582 346 614.5 Q308 647 245 647 Q166 647 96 598 L96 695 Q163 735 250 735 Q350 735 414.5 680 Q479 625 479 535 Q479 475 447.5 431 Q416 387 363 371 L363 369 Q427 355 460.5 308.5 Q494 262 494 198 Q494 104 426 46.5 Q358 -11 252 -11 Q192 -11 139.5 7.5 Q87 26 53 56 Z" /><glyph glyph-name="five" unicode="5" d="M56 37 L63 136 Q143 77 238 77 Q310 77 355 111.5 Q400 146 400 205 Q400 237 385.5 262.5 Q371 288 347.5 303 Q324 318 292.5 328 Q261 338 230.5 342 Q200 346 167 346 Q128 346 86 340 L115 724 L475 724 L468 638 L203 638 L188 429 Q235 429 277.5 422.5 Q320 416 360.5 399.5 Q401 383 430 358 Q459 333 477 295 Q495 257 495 209 Q495 109 424 49 Q353 -11 238 -11 Q133 -11 56 37 Z" /><glyph glyph-name="six" unicode="6" d="M51 228 Q51 279 70.5 331.5 Q90 384 139 463 L301 724 L410 724 L238 450 Q218 420 211 406 L213 405 Q257 437 323 437 Q384 437 434.5 409 Q485 381 514 330.5 Q543 280 543 218 Q543 119 473 54 Q403 -11 297 -11 Q190 -11 120.5 55 Q51 121 51 228 ZM147 219 Q147 161 189.5 117 Q232 73 298 73 Q360 73 404.5 112.5 Q449 152 449 215 Q449 275 407 316 Q365 357 300 357 Q236 357 191.5 317.5 Q147 278 147 219 Z" /><glyph glyph-name="seven" unicode="7" d="M48 638 L48 724 L520 724 L521 722 L219 0 L120 0 L387 638 L48 638 Z" /><glyph glyph-name="eight" unicode="8" d="M59 203 Q59 267 92 314.5 Q125 362 184 382 L184 384 Q79 427 79 537 Q79 623 141 679 Q203 735 302 735 Q401 735 463 679 Q525 623 525 537 Q525 427 420 384 L420 382 Q479 362 512 314.5 Q545 267 545 203 Q545 110 478 49.5 Q411 -11 302 -11 Q193 -11 126 49.5 Q59 110 59 203 ZM196 301.5 Q153 264 153 205 Q153 146 195.5 109.5 Q238 73 301.5 73 Q365 73 408 110 Q451 147 451 205 Q451 264 407.5 301.5 Q364 339 301.5 339 Q239 339 196 301.5 ZM169 533 Q169 482 207.5 448.5 Q246 415 301.5 415 Q357 415 396 448.5 Q435 482 435 533 Q435 584 397 617.5 Q359 651 302 651 Q245 651 207 617.5 Q169 584 169 533 Z" /><glyph glyph-name="nine" unicode="9" d="M45 505 Q45 570 77 623 Q109 676 166 705.5 Q223 735 293 735 Q399 735 467 670 Q535 605 535 502 Q535 444 514 392.5 Q493 341 448 270 L279 0 L170 0 L364 309 L362 311 Q322 287 264 287 Q221 287 181 303 Q141 319 111 347 Q81 375 63 416.5 Q45 458 45 505 ZM139 508 Q139 448 181 408 Q223 368 289 368 Q355 368 397 408.5 Q439 449 439 507 Q439 564 396.5 607 Q354 650 290 650 Q228 650 183.5 610 Q139 570 139 508 Z" /><glyph glyph-name="A" unicode="a" d="M5 0 L303 724 L394 724 L693 0 L591 0 L510 202 L184 202 L102 0 L5 0 ZM217 285 L477 285 L418 435 Q377 539 349 614 L347 614 Q327 558 276 432 L217 285 Z" /><glyph glyph-name="B" unicode="b" d="M81 0 L81 724 L275 724 Q344 724 388.5 716 Q433 708 468 686 Q553 635 553 538 Q553 479 522.5 440.5 Q492 402 443 385 L443 383 Q508 367 545 324.5 Q582 282 582 214 Q582 162 560.5 119 Q539 76 499 48 Q462 21 408 10.5 Q354 0 273 0 L81 0 ZM176 86 L279 86 Q341 86 378 93 Q415 100 440 117 Q487 150 487 212 Q487 271 442 303 Q397 335 316 335 L176 335 L176 86 ZM176 408 L319 408 Q357 408 387.5 419.5 Q418 431 438 457 Q458 483 458 521 Q458 582 407 613 Q382 627 350 632.5 Q318 638 262 638 L176 638 L176 408 Z" /><glyph glyph-name="C" unicode="c" d="M41 360 Q41 437 68.5 505.5 Q96 574 144 624.5 Q192 675 263.5 705 Q335 735 418 735 Q532 735 622 684 L622 580 Q580 611 526.5 629 Q473 647 417 647 Q336 647 271.5 609.5 Q207 572 171.5 507 Q136 442 136 362 Q136 282 172 217 Q208 152 274 114.5 Q340 77 425 77 Q542 77 633 150 L633 45 Q590 18 534 3.5 Q478 -11 420 -11 Q339 -11 268 17 Q197 45 147.5 94.5 Q98 144 69.5 212.5 Q41 281 41 360 Z" /><glyph glyph-name="D" unicode="d" d="M81 0 L81 724 L280 724 Q438 724 536 665 Q614 618 656 539 Q698 460 698 365 Q698 275 660.5 198.5 Q623 122 554 73 Q498 34 426 17 Q354 0 256 0 L81 0 ZM176 86 L271 86 Q341 86 392.5 96.5 Q444 107 486 134 Q539 168 571 228 Q603 288 603 362 Q603 437 571 495.5 Q539 554 487 588 Q443 617 389.5 627.5 Q336 638 269 638 L176 638 L176 86 Z" /><glyph glyph-name="E" unicode="e" d="M81 0 L81 724 L499 724 L499 638 L176 638 L176 418 L459 418 L459 335 L176 335 L176 86 L508 86 L508 0 L81 0 Z" /><glyph glyph-name="F" unicode="f" d="M81 0 L81 724 L509 724 L509 638 L176 638 L176 404 L469 404 L469 321 L176 321 L176 0 L81 0 Z" /><glyph glyph-name="G" unicode="g" d="M70 211.5 Q41 281 41 360 Q41 439 69.5 508.5 Q98 578 147.5 627.5 Q197 677 268.5 706 Q340 735 423 735 Q548 735 645 675 L645 567 Q600 604 541.5 625.5 Q483 647 421 647 Q338 647 272.5 609 Q207 571 171.5 506 Q136 441 136 362 Q136 304 156 252 Q176 200 212 161 Q248 122 303 98.5 Q358 75 424 75 Q507 75 572 109 L572 278 L410 278 L410 361 L667 361 L667 62 Q618 28 551 8.5 Q484 -11 416 -11 Q337 -11 267.5 17 Q198 45 148.5 93.5 Q99 142 70 211.5 Z" /><glyph glyph-name="H" unicode="h" d="M81 0 L81 724 L176 724 L176 419 L570 419 L570 724 L665 724 L665 0 L570 0 L570 333 L176 333 L176 0 L81 0 Z" /><glyph glyph-name="I" unicode="i" d="M81 0 L81 724 L176 724 L176 0 L81 0 Z" /><glyph glyph-name="L" unicode="l" d="M81 0 L81 724 L176 724 L176 86 L518 86 L518 0 L81 0 Z" /><glyph glyph-name="M" unicode="m" d="M81 0 L81 724 L173 724 L430 356 L687 724 L778 724 L778 0 L683 0 L683 408 Q683 479 685 565 L683 566 Q603 446 586 423 L428 197 L270 423 Q253 446 173 566 L171 565 Q173 479 173 408 L173 0 L81 0 Z" /><glyph glyph-name="N" unicode="n" d="M81 0 L81 724 L171 724 L474 322 Q540 236 599 153 L601 154 Q599 280 599 360 L599 724 L691 724 L691 0 L601 0 L298 402 Q232 488 173 571 L171 570 Q173 444 173 364 L173 0 L81 0 Z" /><glyph glyph-name="O" unicode="o" d="M68.5 215 Q40 284 40 361.5 Q40 439 68.5 508.5 Q97 578 145.5 627.5 Q194 677 262.5 706 Q331 735 408 735 Q511 735 595.5 686 Q680 637 728 551 Q776 465 776 361.5 Q776 258 728 172.5 Q680 87 595.5 38 Q511 -11 408 -11 Q331 -11 262.5 18 Q194 47 145.5 96.5 Q97 146 68.5 215 ZM135 362 Q135 283 170 218 Q205 153 268 115 Q331 77 408.5 77 Q486 77 548.5 115 Q611 153 646 218 Q681 283 681 362 Q681 441 646 506 Q611 571 548.5 609 Q486 647 408 647 Q350 647 299 625 Q248 603 212 564.5 Q176 526 155.5 473.5 Q135 421 135 362 Z" /><glyph glyph-name="P" unicode="p" d="M81 0 L81 724 L270 724 Q341 724 391 717 Q441 710 484 686 Q589 627 589 507 Q589 447 562.5 400.5 Q536 354 491 327 Q449 301 392.5 293.5 Q336 286 251 286 L176 286 L176 0 L81 0 ZM176 369 L263 369 Q333 369 370.5 374 Q408 379 436 396 Q494 431 494 503 Q494 581 427 615 Q397 630 360.5 634 Q324 638 262 638 L176 638 L176 369 Z" /><glyph glyph-name="R" unicode="r" d="M81 0 L81 724 L277 724 Q344 724 391.5 717 Q439 710 479 688 Q526 662 552.5 619.5 Q579 577 579 519 Q579 462 554 418.5 Q529 375 486 349 Q450 327 403 319 L635 0 L520 0 L299 310 L176 310 L176 0 L81 0 ZM176 388 L299 388 Q397 388 441 421 Q484 453 484 511 Q484 581 425 614 Q397 628 362.5 633 Q328 638 270 638 L176 638 L176 388 Z" /><glyph glyph-name="S" unicode="s" d="M46 533 Q46 628 109.5 681.5 Q173 735 280 735 Q334 735 390 721.5 Q446 708 488 681 L488 581 Q441 614 384.5 631 Q328 648 278 648 Q215 648 177.5 620.5 Q140 593 140 539 Q140 515 148.5 496.5 Q157 478 169.5 466.5 Q182 455 204 444.5 Q226 434 244 428.5 Q262 423 291 415 Q305 411 312 409 Q349 399 374.5 389 Q400 379 430 362 Q460 345 478.5 324 Q497 303 509 271 Q521 239 521 199 Q521 102 455 45.5 Q389 -11 279 -11 Q225 -11 167 3.5 Q109 18 64 44 L64 148 Q111 112 169.5 94 Q228 76 280 76 Q347 76 387 106 Q427 136 427 194 Q427 212 422 227 Q417 242 410 253.5 Q403 265 390.5 274.5 Q378 284 366 290.5 Q354 297 336 303.5 Q318 310 303 314.5 Q288 319 267 325 Q253 328 247 330 Q218 338 196 346 Q174 354 149.5 366 Q125 378 107.5 393 Q90 408 75.5 428 Q61 448 53.5 474.5 Q46 501 46 533 Z" /><glyph glyph-name="T" unicode="t" d="M20 638 L20 724 L601 724 L601 638 L358 638 L358 0 L263 0 L263 638 L20 638 Z" /><glyph glyph-name="V" unicode="v" d="M5 724 L107 724 L261 318 Q298 220 332 126 L334 126 Q360 197 407 321 L562 724 L659 724 L381 0 L284 0 L5 724 Z" /><glyph glyph-name="Y" unicode="y" d="M2 724 L112 724 L235 547 Q328 411 329 409 L331 409 Q367 464 425 548 L547 724 L653 724 L376 328 L376 0 L281 0 L281 327 L2 724 Z" /><glyph glyph-name="underscore" unicode="_" d="M0 -90 L475 -90 L475 -142 L0 -142 L0 -90 Z" /><glyph glyph-name="a" unicode="a" d="M46 133 Q46 211 111 253 Q162 286 249 286 Q300 286 354 273 L354 314 Q354 369 326 395 Q296 422 235 422 Q151 422 84 373 L84 461 Q154 503 248 503 Q346 503 395 458 Q444 414 444 329 L444 120 Q444 96 453.5 82 Q463 68 482 68 Q497 68 511 75 L511 0 Q489 -9 463 -9 Q433 -9 407.5 4.5 Q382 18 368 43 L366 43 Q343 21 302 5 Q261 -11 215 -11 Q145 -11 98 24 Q46 63 46 133 ZM137 141 Q137 106 163 87.5 Q189 69 231 69 Q265 69 298 81 Q331 93 354 112 L354 204 Q311 217 258 217 Q206 217 171.5 199 Q137 181 137 141 Z" /><glyph glyph-name="d" unicode="d" d="M47 238 Q47 313 79.5 373.5 Q112 434 172 468.5 Q232 503 308 503 Q367 503 426 477 L428 478 L428 764 L518 764 L518 0 L428 0 L428 30 L426 31 Q365 -11 288 -11 Q222 -11 167 19 Q112 49 79.5 106.5 Q47 164 47 238 ZM138 243 Q138 167 182 118 Q226 69 300 69 Q367 69 428 111 L428 392 Q369 423 307 423 Q230 423 184 372 Q138 321 138 243 Z" /><glyph glyph-name="g" unicode="g" d="M48 245 Q48 297 65.5 344 Q83 391 115 426 Q147 461 196 482 Q245 503 303 503 Q371 503 428 475 L515 490 L515 2 Q515 -106 448 -168.5 Q381 -231 268 -231 Q184 -231 112 -194 L112 -98 Q189 -149 268 -149 Q339 -149 382 -109 Q425 -69 425 0 L425 36 L423 37 Q366 -1 289 -1 Q223 -1 167.5 30 Q112 61 80 117.5 Q48 174 48 245 ZM139 251 Q139 176 184 127 Q229 78 302 78 Q335 78 368.5 89 Q402 100 425 118 L425 389 Q401 404 367 413.5 Q333 423 301 423 Q228 423 183.5 374 Q139 325 139 251 Z" /><glyph glyph-name="i" unicode="i" d="M79.5 616.5 Q61 635 61 661.5 Q61 688 79.5 706 Q98 724 124 724 Q150 724 168.5 706 Q187 688 187 661.5 Q187 635 168.5 616.5 Q150 598 124 598 Q98 598 79.5 616.5 ZM79 0 L79 492 L169 492 L169 0 L79 0 Z" /><glyph glyph-name="l" unicode="l" d="M79 0 L79 764 L169 764 L169 0 L79 0 Z" /><glyph glyph-name="n" unicode="n" d="M79 0 L79 492 L169 492 L169 430 L171 429 Q205 463 249 483 Q293 503 343 503 Q427 503 474 449 Q495 425 505 392 Q515 359 515 304 L515 0 L425 0 L425 287 Q425 360 402 387 Q375 419 323 419 Q282 419 239 396 Q196 373 169 337 L169 0 L79 0 Z" /><glyph glyph-name="o" unicode="o" d="M45 246 Q45 355 119.5 429 Q194 503 305 503 Q378 503 438 469.5 Q498 436 531.5 377 Q565 318 565 246 Q565 174 531.5 115.5 Q498 57 438 23 Q378 -11 305 -11 Q232 -11 172 23 Q112 57 78.5 115.5 Q45 174 45 246 ZM183.5 371 Q135 321 135 246 Q135 171 183.5 121 Q232 71 305 71 Q378 71 426.5 121 Q475 171 475 246 Q475 321 426.5 371 Q378 421 305 421 Q232 421 183.5 371 Z" /><glyph glyph-name="r" unicode="r" d="M79 0 L79 492 L169 492 L169 420 L171 419 Q197 455 235 475.5 Q273 496 317 496 Q334 496 349 492 L349 403 Q331 407 314 407 Q219 407 169 320 L169 0 L79 0 Z" /><glyph glyph-name="s" unicode="s" d="M50 352 Q50 401 77 436 Q104 471 149 487 Q194 503 252 503 Q298 503 345.5 493 Q393 483 428 464 L428 374 Q388 397 340 409.5 Q292 422 248 422 Q199 422 170 406.5 Q141 391 141 359 Q141 347 144.5 338 Q148 329 157 323 Q166 317 174.5 312.5 Q183 308 197.5 305 Q212 302 223 300 Q234 298 253 295 Q272 292 284 290 Q316 285 338.5 279 Q361 273 385 262 Q409 251 423.5 236.5 Q438 222 447 199 Q456 176 456 146 Q456 105 438.5 73.5 Q421 42 391.5 24 Q362 6 326 -2.5 Q290 -11 249 -11 Q143 -11 66 28 L66 122 Q107 97 156.5 83.5 Q206 70 253 70 Q306 70 335.5 87 Q365 104 365 138 Q365 150 361.5 159.5 Q358 169 349 176 Q340 183 331.5 187.5 Q323 192 307.5 195.5 Q292 199 281 201 Q270 203 249.5 206 Q229 209 218 211 Q187 216 164 222.5 Q141 229 118.5 239.5 Q96 250 81.5 265 Q67 280 58.5 302 Q50 324 50 352 Z" /><glyph glyph-name="t" unicode="t" d="M26 411 L26 492 L117 492 L117 626 L207 641 L207 492 L355 492 L355 411 L207 411 L207 188 Q207 162 209.5 143.5 Q212 125 219.5 107 Q227 89 242 80 Q257 71 281 71 Q322 71 355 92 L355 7 Q318 -11 266 -11 Q194 -11 154 35 Q117 76 117 171 L117 411 L26 411 Z" /><glyph glyph-name="u" unicode="u" d="M77 191 L77 492 L167 492 L167 208 Q167 167 172.5 144 Q178 121 191 106 Q218 72 269 72 Q312 72 353 96 Q394 120 423 156 L423 492 L513 492 L513 0 L423 0 L423 62 L421 63 Q347 -11 251 -11 Q212 -11 176.5 3 Q141 17 117 44 Q77 92 77 191 Z" /><glyph glyph-name="degree" unicode="°" d="M82 483.5 Q39 526 39 588 Q39 650 82 692.5 Q125 735 189 735 Q253 735 296 692.5 Q339 650 339 588 Q339 526 296 483.5 Q253 441 189 441 Q125 441 82 483.5 ZM116.5 658.5 Q87 629 87 587.5 Q87 546 116.5 517 Q146 488 189 488 Q232 488 261.5 517 Q291 546 291 587.5 Q291 629 261.5 658.5 Q232 688 189 688 Q146 688 116.5 658.5 Z" /><glyph glyph-name="uni3001" unicode="&#x3001;" d="M273 -56 Q171 70 52 167 L117 224 Q229 134 341 2 L273 -56 Z" /><glyph glyph-name="uni3002" unicode="&#x3002;" d="M194 244 Q258 244 302 200 Q347 155 347 92 Q347 28 302 -16 Q258 -61 194 -61 Q132 -61 87 -16 Q42 29 42 92 Q42 155 87 200 Q132 244 194 244 ZM194 -10 Q237 -10 266 20 Q296 49 296 92 Q296 134 266 163 Q237 193 194 193 Q153 193 123 163 Q93 133 93 92 Q93 50 123 20 Q153 -10 194 -10 Z" /><glyph glyph-name="uni4E03" unicode="&#x4e03;" d="M759 32 Q807 32 823 68 Q837 100 845 214 Q875 192 920 179 Q910 50 881 8 Q849 -41 761 -41 L500 -41 Q407 -41 374 -11 Q340 20 340 108 L340 411 L65 367 L53 441 L340 487 L340 819 L418 819 L418 499 L938 583 L950 508 L418 424 L418 107 Q418 61 434 47 Q450 32 503 32 L759 32 Z" /><glyph glyph-name="uni4E0A" unicode="&#x4e0a;" d="M942 45 L942 -29 L55 -29 L55 45 L427 45 L427 821 L506 821 L506 515 L880 515 L880 440 L506 440 L506 45 L942 45 Z" /><glyph glyph-name="uni4E0E" unicode="&#x4e0e;" d="M679 167 L61 167 L61 239 L679 239 L679 167 ZM887 449 Q886 423 884 413 Q847 32 783 -29 Q752 -61 690 -64 Q621 -68 512 -60 Q508 -19 484 13 Q562 6 668 6 Q707 6 719 18 Q773 59 805 379 L229 379 L167 380 Q217 556 262 815 L337 807 L316 699 L872 699 L872 628 L302 628 L262 449 L887 449 Z" /><glyph glyph-name="uni4E13" unicode="&#x4e13;" d="M390 464 L353 354 L784 354 L797 358 L853 324 Q739 206 588 64 Q698 18 751 -14 L706 -78 Q538 26 259 108 L301 162 Q391 137 514 92 Q640 211 711 284 L247 284 Q270 341 312 464 L60 464 L60 536 L335 536 Q357 602 373 654 L140 654 L140 725 L394 725 Q417 805 424 835 L503 835 Q487 777 470 725 L853 725 L853 654 L450 654 Q441 627 413 536 L925 536 L925 464 L390 464 Z" /><glyph glyph-name="uni4E1A" unicode="&#x4e1a;" d="M918 573 Q831 366 746 229 L685 262 Q790 434 851 606 L918 573 ZM221 237 Q184 373 85 588 L154 609 Q252 404 295 265 L221 237 ZM938 49 L938 -24 L64 -24 L64 49 L342 49 L342 824 L416 824 L416 49 L585 49 L585 823 L659 823 L659 49 L938 49 Z" /><glyph glyph-name="uni4E1C" unicode="&#x4e1c;" d="M333 242 Q260 79 138 -36 Q117 -15 75 13 Q196 114 260 261 L333 242 ZM582 341 L582 25 Q582 -37 542 -53 Q506 -68 389 -68 Q384 -32 361 8 Q453 5 488 7 Q508 8 508 26 L508 341 L288 341 Q195 341 181 326 Q167 374 153 403 Q178 409 228 481 Q264 530 322 634 L81 634 L81 705 L359 705 Q390 763 422 842 L499 809 Q474 752 449 705 L912 705 L912 634 L411 634 Q345 514 272 413 L508 413 L508 559 L582 559 L582 413 L871 413 L870 341 L582 341 ZM725 263 Q872 122 937 13 L870 -23 Q804 92 664 232 L725 263 Z" /><glyph glyph-name="uni4E24" unicode="&#x4e24;" d="M588 695 L407 695 L407 558 L588 558 L588 695 ZM661 695 L661 558 L897 558 L897 18 Q897 -49 852 -64 Q815 -77 668 -77 Q660 -35 641 -2 Q736 -7 799 -4 Q824 -3 824 20 L824 488 L660 488 Q656 433 650 389 Q767 255 812 174 L767 117 Q724 196 632 308 Q595 164 496 65 Q472 98 443 117 Q576 241 587 488 L406 488 Q402 431 396 386 Q471 296 499 244 L455 185 Q429 237 377 303 Q340 162 242 65 Q222 95 191 117 Q322 241 333 488 L178 488 L178 -77 L105 -77 L105 558 L334 558 L334 695 L63 695 L63 767 L938 767 L938 695 L661 695 Z" /><glyph glyph-name="uni4E2D" unicode="&#x4e2d;" d="M823 321 L823 586 L536 586 L536 321 L823 321 ZM459 321 L459 586 L173 586 L173 321 L459 321 ZM899 659 L899 191 L823 191 L823 248 L536 248 L536 -76 L459 -76 L459 248 L173 248 L173 186 L100 186 L100 659 L459 659 L459 837 L536 837 L536 659 L899 659 Z" /><glyph glyph-name="uni4E3A" unicode="&#x4e3a;" d="M269 629 Q238 696 165 780 L229 808 Q299 731 337 662 L269 629 ZM898 597 L897 558 Q876 30 829 -26 Q799 -61 746 -65 Q691 -70 588 -63 Q584 -23 562 14 Q628 7 717 7 Q746 7 760 22 Q800 62 819 523 L476 523 Q429 145 116 -63 Q96 -33 58 -9 Q354 184 400 523 L86 523 L86 597 L408 597 Q412 653 412 717 L412 834 L486 834 L486 716 Q486 660 483 597 L898 597 ZM634 175 Q593 261 499 371 L560 401 Q657 295 699 211 L634 175 Z" /><glyph glyph-name="uni4E50" unicode="&#x4e50;" d="M310 255 Q221 104 103 -14 Q81 8 43 34 Q163 142 238 279 L310 255 ZM558 365 L558 20 Q558 -45 515 -60 Q477 -76 346 -74 Q338 -35 320 0 Q421 -3 459 -1 Q483 0 483 21 L483 365 L249 365 Q146 365 132 352 Q125 381 107 421 Q123 427 138 485 Q173 608 174 760 Q629 772 829 825 L872 760 Q646 704 247 695 Q233 553 202 439 L483 439 L483 638 L558 638 L558 439 L922 439 L922 365 L558 365 ZM755 278 Q895 126 957 25 L888 -11 Q822 105 691 248 L755 278 Z" /><glyph glyph-name="uni4E5D" unicode="&#x4e5d;" d="M848 18 Q870 18 877 50 Q884 79 887 184 Q912 164 956 151 Q951 32 931 -9 Q910 -53 854 -53 L741 -53 Q681 -53 660 -29 Q639 -5 639 62 L639 539 L417 539 Q380 90 106 -78 Q84 -44 47 -20 Q307 128 338 539 L77 539 L77 612 L343 612 Q346 686 346 833 L426 833 Q426 705 421 612 L715 612 L715 62 Q715 34 721 26 Q728 18 750 18 L848 18 Z" /><glyph glyph-name="uni4E66" unicode="&#x4e66;" d="M902 615 Q839 676 716 757 L760 805 Q881 730 948 671 L902 615 ZM494 395 L725 395 L725 590 L494 590 L494 395 ZM942 395 Q941 371 939 360 Q919 92 880 52 Q853 25 802 22 Q755 19 650 24 Q648 61 626 95 Q689 89 776 89 Q806 89 818 99 Q846 124 863 324 L494 324 L494 -76 L420 -76 L420 324 L64 324 L64 395 L420 395 L420 590 L130 590 L130 662 L420 662 L420 833 L494 833 L494 662 L798 662 L798 395 L942 395 Z" /><glyph glyph-name="uni4E8E" unicode="&#x4e8e;" d="M943 367 L548 367 L548 32 Q548 -41 496 -58 Q456 -72 293 -72 Q284 -36 261 5 Q392 2 442 4 Q471 5 471 32 L471 367 L58 367 L58 440 L471 440 L471 692 L127 692 L127 765 L873 765 L873 692 L548 692 L548 440 L943 440 L943 367 Z" /><glyph glyph-name="uni4E92" unicode="&#x4e92;" d="M661 263 Q669 318 687 477 L341 477 Q313 334 297 263 L661 263 ZM948 32 L948 -41 L56 -41 L56 32 L628 32 L652 193 L198 193 Q254 404 304 707 L89 707 L89 779 L918 779 L918 707 L383 707 Q373 646 354 547 L702 547 L716 551 L771 544 Q754 366 705 32 L948 32 Z" /><glyph glyph-name="uni4E94" unicode="&#x4e94;" d="M443 378 Q413 189 384 51 L663 51 Q680 213 694 378 L443 378 ZM943 51 L943 -22 L60 -22 L60 51 L303 51 Q329 168 364 378 L178 378 L178 451 L376 451 Q394 563 408 666 L123 666 L123 739 L871 739 L871 666 L487 666 Q464 511 454 451 L706 451 L719 455 L776 449 Q764 257 740 51 L943 51 Z" /><glyph glyph-name="uni4E9A" unicode="&#x4e9a;" d="M413 54 L574 54 L574 703 L413 703 L413 54 ZM951 54 L951 -18 L49 -18 L49 54 L334 54 L334 703 L76 703 L76 776 L928 776 L928 703 L653 703 L653 54 L951 54 ZM152 561 Q247 368 291 232 L221 203 Q183 337 87 538 L152 561 ZM684 233 Q777 391 835 560 L906 536 Q834 354 749 208 L684 233 Z" /><glyph glyph-name="uni4E9E" unicode="&#x4e9e;" d="M423 279 L423 35 L571 35 L571 280 L798 280 L798 485 L571 485 L571 704 L422 704 L422 483 L198 483 L198 279 L423 279 ZM946 35 L946 -33 L54 -33 L54 35 L351 35 L351 214 L126 214 L126 548 L351 548 L351 704 L81 704 L81 773 L922 773 L922 704 L643 704 L643 549 L873 549 L873 215 L837 214 L643 214 L643 35 L946 35 Z" /><glyph glyph-name="uni4EAC" unicode="&#x4eac;" d="M309 179 Q227 51 111 -45 Q82 -18 56 1 Q178 99 238 204 L309 179 ZM264 334 L742 334 L742 494 L264 494 L264 334 ZM542 268 L542 9 Q542 -51 498 -67 Q462 -80 319 -78 Q313 -47 294 -7 Q403 -10 442 -8 Q465 -8 465 11 L465 268 L191 268 L191 559 L819 559 L819 268 L542 268 ZM744 205 Q874 76 931 -5 L866 -49 Q800 53 683 168 L744 205 ZM934 712 L934 639 L68 639 L68 712 L477 712 Q445 777 416 821 L486 843 Q533 778 564 712 L934 712 Z" /><glyph glyph-name="uni4EFB" unicode="&#x4efb;" d="M368 814 Q321 700 262 602 L262 -77 L189 -77 L189 492 Q132 415 71 357 Q56 397 25 431 Q197 584 296 836 L368 814 ZM674 340 L674 33 L941 33 L941 -39 L343 -39 L343 33 L600 33 L600 340 L305 340 L305 412 L600 412 L600 676 Q482 655 361 641 Q357 663 338 704 Q687 749 861 812 L916 750 Q814 717 674 689 L674 412 L956 412 L956 340 L674 340 Z" /><glyph glyph-name="uni4F17" unicode="&#x4f17;" d="M460 88 Q410 154 307 243 Q247 40 117 -70 Q94 -46 53 -24 Q238 117 278 480 L353 472 Q343 389 326 315 Q454 215 512 141 L460 88 ZM712 466 Q704 396 693 337 Q767 89 946 -3 Q920 -26 894 -67 Q747 19 665 222 Q605 27 476 -77 Q456 -55 413 -30 Q602 106 637 475 L712 466 ZM566 813 Q554 788 539 765 Q684 556 957 484 Q932 462 905 419 Q656 498 503 709 Q359 510 103 412 Q81 455 51 480 Q373 587 494 842 L566 813 Z" /><glyph glyph-name="uni4F18" unicode="&#x4f18;" d="M831 623 Q788 689 697 774 L749 811 Q840 728 886 664 L831 623 ZM344 813 Q302 700 239 585 L239 -76 L168 -76 L168 471 Q129 415 84 365 Q66 404 41 438 Q189 593 274 834 L344 813 ZM586 530 Q554 90 332 -72 Q312 -42 277 -18 Q484 127 513 530 L293 530 L293 601 L518 601 Q522 700 522 824 L595 824 Q595 694 590 601 L947 601 L947 530 L586 530 ZM845 19 Q867 19 874 47 Q881 75 883 173 Q907 154 949 141 Q944 28 924 -10 Q905 -49 851 -49 L735 -49 Q677 -49 656 -27 Q636 -5 636 56 L636 452 L709 452 L709 56 Q709 33 715 26 Q722 19 744 19 L845 19 Z" /><glyph glyph-name="uni4F1A" unicode="&#x4f1a;" d="M93 337 L914 337 L914 265 L478 265 Q373 126 274 38 L728 72 Q674 135 612 192 L675 226 Q831 85 902 -35 L836 -76 Q812 -35 781 6 Q195 -42 160 -55 Q142 4 135 22 Q160 27 209 74 Q280 133 377 265 L93 265 L93 337 ZM575 805 Q562 788 546 765 Q717 590 960 507 Q931 482 908 441 Q681 533 503 715 Q409 612 278 528 L740 528 L740 459 L265 459 L265 520 Q184 469 100 431 Q77 468 46 494 Q368 632 504 836 L575 805 Z" /><glyph glyph-name="uni4F20" unicode="&#x4f20;" d="M338 811 Q294 701 235 596 L235 -75 L162 -75 L162 483 Q120 423 64 364 Q42 410 21 436 Q179 590 268 833 L338 811 ZM549 464 L513 345 L833 345 L845 350 L896 317 Q817 225 676 69 Q746 17 785 -22 L730 -77 Q636 22 469 127 L523 172 Q577 139 619 110 Q703 201 767 275 L412 275 Q439 348 473 464 L294 464 L294 533 L494 533 L527 652 L351 652 L351 721 L546 721 L560 777 Q569 812 573 831 L647 821 Q630 754 620 721 L905 721 L905 652 L602 652 Q580 572 568 533 L950 533 L950 464 L549 464 Z" /><glyph glyph-name="uni4F4D" unicode="&#x4f4d;" d="M616 667 Q603 738 569 826 L639 844 Q680 730 689 689 L616 667 ZM909 584 L370 584 L370 656 L909 656 L909 584 ZM503 82 Q489 267 435 508 L502 523 Q555 301 576 103 L503 82 ZM358 812 Q321 711 257 600 L257 -75 L183 -75 L183 484 Q142 424 84 363 Q68 405 42 436 Q201 591 288 833 L358 812 ZM950 36 L950 -36 L328 -36 L328 36 L677 36 Q738 262 772 531 L849 517 Q803 247 746 36 L950 36 Z" /><glyph glyph-name="uni4F53" unicode="&#x4f53;" d="M323 812 Q289 710 234 601 L234 -75 L163 -75 L163 478 Q123 416 78 363 Q57 407 35 436 Q173 588 254 833 L323 812 ZM700 564 Q800 281 970 144 Q937 120 914 85 Q754 231 652 523 L652 176 L813 176 L813 108 L652 108 L652 -71 L580 -71 L580 108 L417 108 L417 176 L580 176 L580 516 Q473 228 315 83 Q288 118 261 139 Q430 274 535 564 L300 564 L300 636 L580 636 L580 833 L652 833 L652 636 L950 636 L950 564 L700 564 Z" /><glyph glyph-name="uni4F5C" unicode="&#x4f5c;" d="M358 810 Q321 710 256 596 L256 -75 L182 -75 L182 481 Q138 419 83 362 Q64 409 40 436 Q197 588 287 833 L358 810 ZM650 599 L650 456 L935 456 L935 387 L650 387 L650 236 L949 236 L949 166 L650 166 L650 -76 L575 -76 L575 599 L506 599 Q440 476 364 391 Q340 417 306 441 Q446 586 526 824 L597 805 Q576 745 542 670 L958 670 L958 599 L650 599 Z" /><glyph glyph-name="uni4F73" unicode="&#x4f73;" d="M593 636 L378 636 L378 706 L593 706 L593 837 L667 837 L667 706 L891 706 L891 636 L667 636 L667 494 L936 494 L936 423 L329 423 L329 494 L593 494 L593 636 ZM340 813 Q302 707 243 594 L243 -77 L170 -77 L170 473 Q134 419 86 363 Q70 399 44 436 Q188 589 270 833 L340 813 ZM956 32 L956 -40 L297 -40 L297 32 L593 32 L593 199 L357 199 L357 269 L593 269 L593 384 L667 384 L667 269 L908 269 L908 199 L667 199 L667 32 L956 32 Z" /><glyph glyph-name="uni4F9B" unicode="&#x4f9b;" d="M341 812 Q299 704 239 598 L239 -75 L166 -75 L166 486 Q121 420 67 365 Q47 408 25 438 Q180 588 271 834 L341 812 ZM555 157 Q478 23 364 -74 Q333 -43 305 -28 Q418 59 484 179 L555 157 ZM768 176 Q885 66 946 -37 L883 -78 Q828 25 710 143 L768 176 ZM536 308 L731 308 L731 552 L536 552 L536 308 ZM957 308 L957 235 L311 235 L311 308 L464 308 L464 552 L335 552 L335 624 L464 624 L464 825 L536 825 L536 624 L731 624 L731 826 L803 826 L803 624 L945 624 L945 552 L803 552 L803 308 L957 308 Z" /><glyph glyph-name="uni4F9D" unicode="&#x4f9d;" d="M616 653 Q600 713 547 811 L612 832 Q666 743 686 679 L616 653 ZM339 815 Q297 702 234 586 L234 -78 L163 -78 L163 472 Q125 419 79 366 Q63 400 37 439 Q185 595 269 835 L339 815 ZM949 433 Q845 339 740 269 Q838 89 968 12 Q941 -9 913 -48 Q687 99 578 504 Q547 459 484 390 L484 33 L662 96 Q665 63 673 32 Q427 -59 401 -80 Q389 -48 363 -24 Q411 11 411 62 L411 319 Q352 266 292 224 Q265 263 240 285 Q429 400 546 581 L300 581 L300 651 L941 651 L941 581 L630 581 L627 576 Q658 446 712 324 Q813 396 895 484 L949 433 Z" /><glyph glyph-name="uni4FE1" unicode="&#x4fe1;" d="M611 678 Q592 729 542 811 L605 837 Q655 765 678 707 L611 678 ZM325 813 Q292 715 241 616 L241 -80 L172 -80 L172 496 Q133 433 77 367 Q61 403 36 436 Q176 587 259 833 L325 813 ZM435 182 L435 24 L810 24 L810 182 L435 182 ZM370 244 L876 244 L876 -74 L810 -74 L810 -38 L435 -38 L435 -77 L370 -77 L370 244 ZM384 389 L866 389 L866 328 L384 328 L384 389 ZM866 468 L384 468 L384 529 L866 529 L866 468 ZM945 672 L945 609 L312 609 L312 672 L945 672 Z" /><glyph glyph-name="uni4FF1" unicode="&#x4ff1;" d="M462 221 L787 221 L787 312 L462 312 L462 221 ZM462 737 L462 652 L787 652 L787 737 L462 737 ZM462 455 L462 366 L787 366 L787 455 L462 455 ZM787 598 L462 598 L462 510 L787 510 L787 598 ZM391 221 L391 799 L860 799 L860 221 L952 221 L952 154 L292 154 L292 221 L391 221 ZM338 814 Q296 705 236 600 L236 -75 L165 -75 L165 488 Q123 427 64 365 Q44 410 22 437 Q178 592 268 835 L338 814 ZM561 100 Q482 1 333 -78 Q312 -50 286 -27 Q424 43 502 140 L561 100 ZM739 139 Q886 42 953 -26 L903 -78 Q833 -3 692 94 L739 139 Z" /><glyph glyph-name="uni512A" unicode="&#x512a;" d="M797 639 L460 639 L460 597 L797 597 L797 639 ZM797 433 L797 476 L460 476 L460 433 L797 433 ZM797 558 L460 558 L460 516 L797 516 L797 558 ZM563 683 L575 734 L322 734 L322 791 L935 791 L935 734 L653 734 L631 683 L867 683 L867 433 L954 433 L954 298 L887 298 L887 385 L637 385 Q673 359 696 335 L654 299 Q617 343 552 379 L559 385 L359 385 L359 298 L294 298 L294 433 L392 433 L392 683 L563 683 ZM816 362 Q894 300 930 245 L882 213 Q847 270 769 332 L816 362 ZM317 253 Q378 288 422 356 L471 329 Q420 250 361 213 L317 253 ZM303 814 Q271 716 224 616 L224 -72 L153 -72 L153 484 Q109 411 61 354 Q37 399 16 423 Q155 579 233 832 L303 814 ZM495 139 Q542 95 625 58 Q709 94 757 139 L495 139 ZM864 164 Q812 87 704 30 Q819 -5 965 -18 Q941 -42 922 -80 Q750 -60 622 -7 Q489 -57 313 -80 Q302 -55 276 -25 Q426 -8 547 30 Q482 66 440 110 Q393 82 322 52 Q308 76 279 98 Q427 151 511 229 Q480 241 480 291 L480 358 L541 358 L541 292 Q541 278 549 274 Q556 270 582 270 L701 270 Q719 270 725 278 Q731 286 733 316 Q749 305 786 296 Q781 251 765 236 Q749 221 710 221 L588 221 Q571 204 551 187 L803 187 L817 190 L864 164 Z" /><glyph glyph-name="uni5148" unicode="&#x5148;" d="M836 10 Q863 10 871 37 Q879 63 882 160 Q910 139 951 129 Q945 16 923 -23 Q901 -61 842 -61 L700 -61 Q635 -61 612 -38 Q590 -17 590 45 L590 338 L401 338 Q384 175 327 85 Q257 -27 98 -82 Q82 -45 51 -19 Q197 26 260 122 Q309 197 324 338 L65 338 L65 410 L463 410 L463 610 L257 610 Q220 521 170 458 Q143 477 105 493 Q201 610 248 813 L323 798 Q311 753 286 681 L463 681 L463 836 L537 836 L537 681 L865 681 L865 610 L537 610 L537 410 L937 410 L937 338 L664 338 L664 45 Q664 23 672 16 Q680 10 709 10 L836 10 Z" /><glyph glyph-name="uni2F0A" unicode="&#x2f0a;&#x5165;" d="M342 815 Q495 705 646 405 Q789 118 960 16 Q933 -20 923 -66 Q778 15 675 185 Q642 240 594 337 Q537 453 516 491 Q402 100 112 -70 Q87 -40 45 -10 Q357 151 456 589 Q385 690 297 751 L342 815 Z" /><glyph glyph-name="uni5171" unicode="&#x5171;" d="M408 158 Q295 21 124 -78 Q100 -52 65 -25 Q240 66 331 188 L408 158 ZM651 189 Q831 62 930 -31 L860 -77 Q763 20 587 151 L651 189 ZM358 318 L642 318 L642 554 L358 554 L358 318 ZM952 318 L952 246 L53 246 L53 318 L283 318 L283 554 L93 554 L93 626 L283 626 L283 828 L358 828 L358 626 L642 626 L642 828 L718 828 L718 626 L916 626 L916 554 L718 554 L718 318 L952 318 Z" /><glyph glyph-name="uni5177" unicode="&#x5177;" d="M279 211 L729 211 L729 301 L279 301 L279 211 ZM279 727 L279 642 L729 642 L729 727 L279 727 ZM279 444 L279 357 L729 357 L729 444 L279 444 ZM729 585 L279 585 L279 501 L729 501 L729 585 ZM948 143 L56 143 L56 211 L206 211 L206 789 L806 789 L806 211 L948 211 L948 143 ZM398 91 Q278 -4 97 -76 Q75 -46 44 -21 Q234 48 329 135 L398 91 ZM651 137 Q824 61 953 -18 L895 -73 Q779 7 605 87 L651 137 Z" /><glyph glyph-name="uni521B" unicode="&#x521b;" d="M451 3 Q485 3 495 28 Q505 52 509 141 Q541 121 575 114 Q568 9 545 -26 Q521 -62 456 -62 L271 -62 Q198 -62 172 -40 Q145 -17 145 47 L145 473 L507 473 Q507 452 506 443 Q492 210 464 179 Q445 158 407 153 Q356 150 309 154 Q306 189 291 218 Q327 214 376 214 Q396 214 405 223 Q424 248 434 407 L217 407 L217 47 Q217 19 228 11 Q239 3 277 3 L451 3 ZM384 814 Q384 813 364 771 Q527 604 594 505 L541 456 Q471 561 331 711 Q232 541 85 427 Q57 459 31 479 Q226 618 315 835 L384 814 ZM713 169 L642 169 L642 720 L713 720 L713 169 ZM909 821 L909 22 Q909 -43 864 -60 Q825 -75 684 -73 Q676 -35 658 -2 Q752 -6 810 -3 Q836 -2 836 22 L836 821 L909 821 Z" /><glyph glyph-name="uni522B" unicode="&#x522b;" d="M420 726 L165 726 L165 534 L420 534 L420 726 ZM492 467 L96 467 L96 792 L492 792 L492 467 ZM509 356 L508 322 Q493 2 462 -36 Q440 -63 402 -66 Q372 -70 291 -66 Q287 -24 270 5 Q324 0 367 0 Q389 0 400 11 Q422 37 434 287 L295 287 Q260 18 83 -80 Q66 -46 36 -25 Q195 57 225 287 L59 287 L59 356 L232 356 Q236 408 237 442 L308 442 Q303 363 302 356 L509 356 ZM697 167 L625 167 L625 716 L697 716 L697 167 ZM909 817 L909 21 Q909 -45 866 -62 Q833 -77 694 -77 Q689 -41 668 -2 Q757 -6 811 -3 Q836 -3 836 21 L836 817 L909 817 Z" /><glyph glyph-name="uni526F" unicode="&#x526f;" d="M156 292 L156 198 L306 198 L306 292 L156 292 ZM523 292 L374 292 L374 198 L523 198 L523 292 ZM523 40 L523 140 L374 140 L374 40 L523 40 ZM306 40 L306 140 L156 140 L156 40 L306 40 ZM88 351 L594 351 L594 -62 L523 -62 L523 -19 L156 -19 L156 -74 L88 -74 L88 351 ZM481 595 L191 595 L191 483 L481 483 L481 595 ZM552 655 L552 423 L123 423 L123 655 L552 655 ZM61 791 L609 791 L609 726 L61 726 L61 791 ZM740 166 L674 166 L674 716 L740 716 L740 166 ZM919 817 L919 20 Q919 -45 877 -62 Q840 -78 710 -76 Q704 -39 685 -2 Q772 -6 822 -3 Q847 -3 847 20 L847 817 L919 817 Z" /><glyph glyph-name="uni2F12" unicode="&#x2f12;&#x529b;&#xf98a;" d="M904 619 Q903 591 902 580 Q873 37 815 -29 Q787 -63 730 -69 Q680 -73 570 -66 Q568 -24 545 10 Q624 3 702 3 Q733 3 748 18 Q799 66 825 545 L484 545 Q456 128 114 -81 Q89 -43 57 -22 Q377 168 407 545 L87 545 L87 619 L411 619 L411 835 L488 835 L488 619 L904 619 Z" /><glyph glyph-name="uni52A1" unicode="&#x52a1;" d="M866 282 Q865 259 862 249 Q834 8 784 -38 Q758 -62 703 -65 Q634 -67 555 -62 Q553 -27 532 4 Q606 -3 683 -3 Q714 -3 726 6 Q763 36 786 217 L483 217 Q396 -4 101 -75 Q83 -37 60 -12 Q325 39 404 217 L129 217 L129 282 L427 282 Q441 333 446 381 L523 375 Q516 332 504 282 L866 282 ZM324 656 Q387 577 508 525 Q659 586 743 670 L339 670 L324 656 ZM858 707 Q775 582 595 494 Q742 449 956 436 Q932 409 915 369 Q669 390 507 457 Q331 388 79 357 Q70 393 49 422 Q256 442 425 496 Q336 545 276 614 Q221 569 139 522 Q117 559 93 577 Q288 676 383 838 L461 822 Q427 771 397 734 L800 734 L813 738 L858 707 Z" /><glyph glyph-name="uni52A8" unicode="&#x52a8;" d="M477 688 L93 688 L93 755 L477 755 L477 688 ZM446 67 L428 132 Q124 65 93 46 L93 50 Q92 49 92 47 Q87 74 69 116 Q86 120 114 184 Q162 297 195 450 L57 450 L57 518 L494 518 L494 450 L272 450 Q232 288 170 145 L407 195 Q375 287 349 347 L410 364 Q481 202 512 88 L446 67 ZM942 607 L941 570 Q924 30 882 -24 Q856 -56 810 -62 Q766 -66 672 -61 Q668 -19 649 12 Q705 7 779 7 Q804 6 817 22 Q853 62 868 536 L719 536 Q694 94 517 -76 Q492 -41 459 -22 Q625 130 646 536 L507 536 L507 607 L649 607 Q652 677 652 820 L725 820 Q725 712 722 607 L942 607 Z" /><glyph glyph-name="uni5316" unicode="&#x5316;" d="M388 813 Q348 715 287 616 L287 -77 L210 -77 L210 500 Q148 418 95 369 Q69 416 46 440 Q219 595 315 836 L388 813 ZM817 15 Q855 15 868 58 Q879 95 885 228 Q922 200 958 192 Q950 47 925 -3 Q897 -58 821 -58 L645 -58 Q570 -58 544 -29 Q517 0 517 83 L517 255 Q448 210 378 175 Q351 209 323 231 Q418 277 517 345 L517 818 L595 818 L595 404 Q765 539 863 692 L936 644 Q806 462 595 309 L595 81 Q595 40 606 27 Q617 15 653 15 L817 15 Z" /><glyph glyph-name="uni534E" unicode="&#x534e;" d="M530 556 Q441 530 386 516 Q378 544 359 574 Q466 603 530 624 L530 823 L603 823 L603 650 Q769 710 852 770 L909 713 Q799 644 603 579 L603 468 Q603 444 613 437 Q624 430 659 430 L821 430 Q849 430 858 450 Q866 470 870 541 Q894 522 936 512 Q930 425 908 395 Q886 365 826 365 L651 365 Q580 365 555 386 Q530 408 530 469 L530 556 ZM226 604 Q164 546 105 505 Q77 540 51 560 Q225 668 327 838 L395 813 Q357 750 299 682 L299 338 L226 338 L226 604 ZM945 150 L538 150 L538 -77 L461 -77 L461 150 L55 150 L55 222 L461 222 L461 339 L538 339 L538 222 L945 222 L945 150 Z" /><glyph glyph-name="uni5354" unicode="&#x5354;" d="M644 665 Q591 491 396 419 Q379 450 356 472 Q523 528 573 665 L397 665 L397 726 L589 726 Q599 772 602 834 L672 834 Q667 772 659 726 L905 725 L903 696 Q886 500 853 467 Q830 445 791 444 Q761 441 686 445 Q682 479 667 505 Q720 500 766 500 Q788 500 797 509 Q818 526 832 665 L644 665 ZM238 504 L238 -74 L167 -74 L167 504 L44 504 L44 572 L167 572 L167 834 L238 834 L238 572 L358 572 L358 504 L238 504 ZM609 313 L607 283 Q597 -15 570 -51 Q552 -73 519 -76 Q490 -78 444 -76 Q442 -44 428 -19 Q457 -22 493 -22 Q509 -23 517 -13 Q536 14 544 254 L465 254 Q440 17 320 -85 Q305 -60 277 -38 Q379 47 402 254 L305 254 L305 314 L407 314 Q409 347 411 415 L475 415 Q473 349 471 314 L609 313 ZM944 313 L943 283 Q934 -13 908 -48 Q890 -70 855 -73 Q824 -76 774 -73 Q769 -34 757 -16 Q804 -19 828 -19 Q845 -19 854 -9 Q871 15 879 254 L792 254 Q764 19 637 -82 Q620 -52 594 -33 Q705 52 726 254 L634 254 L634 314 L732 314 Q734 348 736 416 L803 416 Q802 379 798 314 L944 313 Z" /><glyph glyph-name="uni5357" unicode="&#x5357;" d="M533 119 L533 -57 L462 -57 L462 119 L247 119 L247 181 L462 181 L462 282 L268 282 L268 343 L373 343 Q357 402 318 461 L377 476 Q420 413 435 360 L381 343 L560 343 Q594 411 617 480 L684 465 Q650 389 626 343 L739 343 L739 282 L533 282 L533 181 L756 181 L756 119 L533 119 ZM530 667 L514 561 L885 561 L885 10 Q885 -50 842 -65 Q810 -77 673 -77 Q666 -47 646 -10 Q743 -15 787 -12 Q810 -11 810 10 L810 492 L191 492 L191 -76 L118 -76 L118 561 L443 561 Q448 594 456 667 L64 667 L64 737 L463 737 Q469 810 470 838 L550 829 L539 737 L938 737 L938 667 L530 667 Z" /><glyph glyph-name="uni535A" unicode="&#x535a;" d="M679 558 L679 500 L833 500 L833 558 L679 558 ZM833 392 L833 450 L679 450 L679 392 L833 392 ZM611 392 L611 450 L456 450 L456 392 L611 392 ZM456 558 L456 500 L611 500 L611 558 L456 558 ZM611 668 L341 668 L341 729 L611 729 L611 836 L679 836 L679 729 L857 729 Q860 727 732 793 L762 836 Q843 800 903 770 L877 729 L948 729 L948 668 L679 668 L679 612 L900 612 L900 278 L833 278 L833 342 L679 342 L679 281 L611 281 L611 342 L456 342 L456 271 L391 271 L391 612 L611 612 L611 668 ZM239 504 L239 -76 L167 -76 L167 504 L44 504 L44 573 L167 573 L167 836 L239 836 L239 573 L347 573 L347 504 L239 504 ZM460 151 Q567 69 604 36 L559 -14 Q511 36 417 108 L460 151 ZM956 159 L815 159 L815 2 Q815 -51 780 -64 Q751 -74 637 -74 Q630 -40 615 -13 Q705 -15 727 -13 Q745 -13 745 3 L745 159 L317 159 L317 223 L745 223 L745 279 L815 279 L815 223 L956 223 L956 159 Z" /><glyph glyph-name="uni53CA" unicode="&#x53ca;" d="M345 657 Q427 334 619 166 Q754 288 812 471 L554 471 Q584 564 615 709 L345 709 L345 657 ZM906 525 Q845 273 680 120 Q800 37 959 0 Q930 -31 910 -69 Q742 -25 618 68 Q494 -24 322 -75 Q306 -40 279 -9 Q434 28 560 117 Q420 249 338 463 Q308 140 94 -62 Q74 -28 40 0 Q269 215 269 626 L269 709 L94 709 L94 783 L707 783 Q694 721 651 542 L843 542 L857 546 L906 525 Z" /><glyph glyph-name="uni53CC" unicode="&#x53cc;" d="M405 53 Q377 116 315 215 Q228 31 93 -76 Q63 -33 39 -18 Q179 85 266 289 Q170 433 77 542 L132 583 Q221 477 299 371 Q350 517 373 688 L68 688 L68 759 L392 759 L404 762 L451 749 Q426 489 351 298 Q432 179 468 103 L405 53 ZM590 688 Q623 446 699 280 Q797 453 835 688 L590 688 ZM916 748 Q875 415 740 200 Q826 54 958 -17 Q931 -38 905 -79 Q777 -3 693 132 Q594 3 452 -76 Q431 -35 402 -13 Q549 59 652 207 Q565 388 518 688 L494 688 L494 759 L855 759 L868 762 L916 748 Z" /><glyph glyph-name="uni53EF" unicode="&#x53ef;" d="M233 474 L233 246 L494 246 L494 474 L233 474 ZM233 175 L233 95 L161 95 L161 546 L567 546 L567 175 L233 175 ZM944 692 L821 692 L821 30 Q821 -46 770 -61 Q730 -75 563 -75 Q554 -36 531 4 Q638 -1 716 2 Q745 3 745 31 L745 692 L59 692 L59 766 L944 766 L944 692 Z" /><glyph glyph-name="uni540E" unicode="&#x540e;" d="M387 278 L387 43 L800 43 L800 278 L387 278 ZM313 348 L877 348 L877 -76 L800 -76 L800 -26 L387 -26 L387 -78 L313 -78 L313 348 ZM951 562 L951 490 L229 490 Q229 109 97 -79 Q69 -44 36 -28 Q153 137 153 490 L153 747 Q610 776 819 828 L881 769 Q652 713 229 685 L229 562 L951 562 Z" /><glyph glyph-name="uni544A" unicode="&#x544a;" d="M262 231 L262 40 L747 40 L747 231 L262 231 ZM188 300 L822 300 L822 -84 L747 -84 L747 -30 L262 -30 L262 -86 L188 -86 L188 300 ZM939 468 L939 398 L65 398 L65 468 L484 468 L484 625 L239 625 Q189 540 144 491 Q110 514 77 531 Q187 638 250 827 L324 810 Q306 758 275 693 L484 693 L484 837 L561 837 L561 693 L865 693 L865 625 L561 625 L561 468 L939 468 Z" /><glyph glyph-name="uni5458" unicode="&#x5458;" d="M269 614 L734 614 L734 727 L269 727 L269 614 ZM813 792 L813 548 L193 548 L193 792 L813 792 ZM534 328 L534 235 Q534 136 465 70 Q368 -24 119 -80 Q99 -45 70 -19 Q308 28 397 105 Q456 157 456 237 L456 328 L534 328 ZM565 122 Q812 40 933 -18 L894 -80 Q763 -13 528 68 L565 122 ZM853 461 L853 102 L774 102 L774 391 L233 391 L233 95 L158 95 L158 461 L853 461 Z" /><glyph glyph-name="uni54A8" unicode="&#x54a8;" d="M280 649 Q217 702 94 749 L131 802 Q249 762 320 708 L280 649 ZM344 488 Q185 410 83 366 L54 437 Q132 465 332 548 L344 488 ZM266 209 L266 30 L745 30 L745 209 L266 209 ZM190 276 L824 276 L824 -83 L745 -83 L745 -37 L266 -37 L266 -87 L190 -87 L190 276 ZM668 661 Q664 631 656 600 Q715 405 946 368 Q919 343 902 305 Q700 350 626 511 Q555 358 339 299 Q324 335 297 359 Q448 396 517 476 Q574 541 593 661 L479 661 Q437 580 392 531 Q364 553 328 571 Q424 668 470 838 L542 822 Q529 775 510 728 L863 728 L875 731 L926 716 Q875 578 846 524 L785 542 Q808 587 834 661 L668 661 Z" /><glyph glyph-name="uni54C1" unicode="&#x54c1;" d="M700 723 L303 723 L303 534 L700 534 L700 723 ZM775 463 L231 463 L231 794 L775 794 L775 463 ZM157 286 L157 49 L366 49 L366 286 L157 286 ZM86 358 L439 358 L439 -68 L366 -68 L366 -23 L157 -23 L157 -77 L86 -77 L86 358 ZM847 49 L847 286 L620 286 L620 49 L847 49 ZM920 358 L920 -70 L847 -70 L847 -23 L620 -23 L620 -77 L548 -77 L548 358 L920 358 Z" /><glyph glyph-name="uni5546" unicode="&#x5546;" d="M450 416 Q373 325 257 246 Q242 281 223 304 Q336 375 397 441 L450 416 ZM380 222 L380 106 L618 106 L618 222 L380 222 ZM380 51 L380 5 L315 5 L315 278 L680 278 L680 51 L380 51 ZM754 250 Q691 310 559 404 L601 448 Q731 360 798 302 L754 250 ZM882 6 Q882 -46 843 -61 Q810 -71 678 -71 Q671 -40 655 -14 Q745 -17 791 -14 Q813 -13 813 7 L813 459 L193 459 L193 -75 L122 -75 L122 521 L583 521 Q629 590 657 657 L736 640 Q684 554 659 521 L882 521 L882 6 ZM343 663 Q391 585 406 552 L338 525 Q317 573 276 641 L343 663 ZM937 729 L937 665 L65 665 L65 729 L480 729 Q459 786 441 821 L513 840 Q548 768 561 729 L937 729 Z" /><glyph glyph-name="uni56FD" unicode="&#x56fd;" d="M775 197 L775 134 L230 134 L230 197 L460 197 L460 365 L272 365 L272 429 L460 429 L460 571 L244 571 L244 638 L755 638 L755 571 L530 571 L530 429 L730 429 L730 365 L530 365 L530 197 L775 197 ZM640 347 Q709 287 741 238 L690 208 Q662 254 593 321 L640 347 ZM833 42 L833 722 L164 722 L164 42 L833 42 ZM910 791 L910 -77 L833 -77 L833 -27 L164 -27 L164 -77 L90 -77 L90 791 L910 791 Z" /><glyph glyph-name="uni56FE" unicode="&#x56fe;" d="M312 204 Q534 179 714 118 L680 63 Q505 126 278 153 L312 204 ZM407 324 Q538 298 643 251 L612 201 Q513 250 377 279 L407 324 ZM379 562 Q428 508 506 464 Q590 512 643 568 L385 568 L379 562 ZM747 603 Q688 510 569 432 Q682 378 820 353 Q796 329 779 297 Q634 328 508 396 Q371 322 212 286 Q197 322 177 347 Q310 371 445 433 Q382 475 337 522 Q289 479 246 451 Q220 479 195 496 Q339 581 415 704 L476 684 Q463 660 436 626 L693 626 L705 629 L747 603 ZM840 31 L840 725 L159 725 L159 31 L840 31 ZM913 793 L913 -77 L840 -77 L840 -35 L159 -35 L159 -77 L87 -77 L87 793 L913 793 Z" /><glyph glyph-name="uni570B" unicode="&#x570b;" d="M729 600 Q693 640 623 672 L658 710 Q729 678 765 642 L729 600 ZM505 185 L213 130 L200 186 Q265 196 500 236 L505 185 ZM413 426 L297 426 L297 323 L413 323 L413 426 ZM468 473 L468 277 L245 277 L245 473 L468 473 ZM750 477 Q713 341 639 234 Q674 148 717 141 Q736 137 746 243 Q766 223 796 209 Q779 55 698 80 Q639 93 596 178 Q535 108 462 61 Q448 81 418 109 Q507 159 571 242 Q537 350 517 534 L210 534 L210 591 L511 591 Q505 659 503 698 L567 698 Q571 626 574 591 L788 591 L788 534 L579 534 Q594 398 616 308 Q665 393 689 489 L750 477 ZM837 34 L837 721 L155 721 L155 34 L837 34 ZM911 790 L911 -78 L837 -78 L837 -34 L155 -34 L155 -78 L84 -78 L84 790 L911 790 Z" /><glyph glyph-name="uni5728" unicode="&#x5728;" d="M671 17 L935 17 L935 -53 L334 -53 L334 17 L597 17 L597 298 L373 298 L373 368 L597 368 L597 559 L671 559 L671 368 L896 368 L896 298 L671 298 L671 17 ZM935 682 L935 611 L390 611 Q334 495 269 407 L269 -73 L196 -73 L196 319 Q147 266 80 218 Q69 249 42 285 Q203 399 306 611 L66 611 L66 682 L339 682 Q370 758 392 837 L468 818 Q451 760 420 682 L935 682 Z" /><glyph glyph-name="uni57ED" unicode="&#x57ed;" d="M362 223 Q249 169 69 90 L40 163 L169 214 L169 528 L56 528 L56 598 L169 598 L169 825 L239 825 L239 598 L342 598 L342 528 L239 528 L239 244 Q297 267 346 289 L362 223 ZM668 429 L808 429 L808 519 L668 519 L668 429 ZM668 580 L808 580 L808 666 L668 666 L668 580 ZM915 290 Q833 217 766 168 Q856 85 960 50 Q931 23 912 -10 Q772 49 668 192 L668 9 Q668 -45 634 -60 Q608 -73 510 -73 Q507 -48 490 -9 L580 -9 Q598 -9 598 9 L598 147 Q479 70 354 -5 L315 53 Q356 74 598 214 L598 368 L407 368 L407 429 L598 429 L598 519 L370 519 L370 580 L598 580 L598 666 L410 666 L410 728 L598 728 L598 836 L668 836 L668 728 L878 728 L878 580 L952 580 L952 519 L878 519 L878 368 L668 368 L668 291 Q688 254 726 208 Q814 281 862 336 L915 290 ZM431 334 Q511 252 541 206 L491 167 Q455 222 381 299 L431 334 Z" /><glyph glyph-name="uni2F24" unicode="&#x2f24;&#x5927;" d="M562 475 Q679 108 955 -5 Q922 -36 899 -75 Q629 53 501 420 Q413 67 102 -75 Q83 -40 46 -14 Q358 122 435 475 L66 475 L66 551 L447 551 Q460 639 462 835 L542 835 Q540 654 526 551 L939 551 L939 475 L562 475 Z" /><glyph glyph-name="uni5929" unicode="&#x5929;" d="M554 379 Q665 78 962 -7 Q935 -33 912 -74 Q624 22 501 323 Q420 60 93 -75 Q79 -44 45 -13 Q369 119 434 379 L70 379 L70 454 L449 454 Q455 501 455 567 L455 684 L105 684 L105 759 L891 759 L891 684 L532 684 L532 566 Q532 502 527 454 L934 454 L934 379 L554 379 Z" /><glyph glyph-name="uni592A" unicode="&#x592a;" d="M568 497 Q681 112 966 -10 Q937 -34 910 -78 Q630 57 507 449 Q470 277 383 155 L412 175 Q542 69 607 -16 L544 -65 Q485 17 361 125 Q260 -3 96 -76 Q75 -39 41 -15 Q369 123 437 497 L64 497 L64 572 L449 572 Q458 646 460 836 L539 836 Q537 665 526 572 L940 572 L940 497 L568 497 Z" /><glyph glyph-name="uni5956" unicode="&#x5956;" d="M942 733 Q840 426 418 351 Q404 387 378 413 Q528 435 635 484 Q591 540 515 605 L569 637 Q645 577 695 516 Q801 585 848 688 L573 688 Q505 622 436 583 Q413 618 392 637 Q540 717 596 840 L668 817 Q653 787 627 753 L884 753 L898 755 L942 733 ZM169 598 Q144 668 77 755 L134 784 Q202 702 229 631 L169 598 ZM281 514 Q161 449 82 408 L50 472 Q133 510 281 584 L281 837 L353 837 L353 349 L281 349 L281 514 ZM560 207 Q652 29 958 -5 Q930 -30 913 -70 Q604 -24 499 179 Q414 -20 82 -78 Q70 -41 47 -15 Q356 34 429 207 L63 207 L63 274 L451 274 Q458 301 465 350 L542 350 Q535 304 528 274 L934 274 L934 207 L560 207 Z" /><glyph glyph-name="uni5965" unicode="&#x5965;" d="M230 280 L160 280 L160 750 L430 750 Q450 795 464 840 L545 826 Q550 838 510 750 L841 750 L841 280 L768 280 L768 687 L230 687 L230 280 ZM465 327 L465 440 Q387 347 299 297 Q277 325 256 342 Q344 383 416 464 L273 464 L273 518 L465 518 L465 664 L530 664 L530 518 L723 518 L723 464 L530 464 L530 327 L465 327 ZM348 649 Q398 583 417 548 L367 523 Q334 580 300 627 L348 649 ZM697 628 Q631 541 616 524 L572 546 Q619 610 640 655 L697 628 ZM690 312 Q639 356 550 412 L587 448 Q690 383 727 353 L690 312 ZM580 174 Q679 20 960 -9 Q928 -43 915 -79 Q608 -33 502 174 Q462 72 370 14 Q269 -50 78 -78 Q67 -43 42 -14 Q347 27 419 174 L59 174 L59 239 L443 239 Q450 267 456 300 L534 300 Q530 271 522 239 L939 239 L939 174 L580 174 Z" /><glyph glyph-name="uni5B57" unicode="&#x5b57;" d="M156 528 L83 528 L83 732 L477 732 Q453 782 425 820 L496 844 Q541 785 563 732 L916 732 L916 528 L840 528 L840 661 L156 661 L156 528 ZM926 230 L538 230 L538 15 Q538 -48 492 -62 Q454 -75 322 -75 Q311 -35 288 -2 Q399 -5 437 -3 Q461 -2 461 16 L461 230 L71 230 L71 301 L461 301 L461 363 Q552 407 635 480 L235 480 L235 550 L710 550 L726 554 L777 515 Q673 409 538 338 L538 301 L926 301 L926 230 Z" /><glyph glyph-name="uni5B66" unicode="&#x5b66;" d="M154 474 L83 474 L83 671 L248 671 Q221 728 162 798 L224 827 Q293 748 319 691 L281 671 L500 671 Q476 744 425 820 L489 844 Q551 758 570 692 L519 671 L682 671 Q743 747 783 830 L858 804 Q811 734 761 671 L924 671 L924 474 L851 474 L851 604 L154 604 L154 474 ZM942 206 L535 206 L535 15 Q535 -47 487 -62 Q448 -75 303 -75 Q297 -51 272 -3 Q397 -8 435 -4 Q461 -3 461 16 L461 206 L63 206 L63 275 L461 275 L461 347 Q547 378 634 436 L230 436 L230 502 L719 502 L733 506 L782 469 Q689 384 535 315 L535 275 L942 275 L942 206 Z" /><glyph glyph-name="uni5B9A" unicode="&#x5b9a;" d="M158 507 L85 507 L85 724 L473 724 Q454 773 427 822 L499 843 Q539 775 558 724 L914 724 L914 507 L839 507 L839 653 L158 653 L158 507 ZM537 26 Q602 13 701 13 Q908 13 956 15 Q936 -17 928 -60 L697 -60 Q526 -60 429 -21 Q313 26 249 146 Q197 4 100 -80 Q74 -50 40 -29 Q191 87 227 378 L301 370 Q293 306 278 241 Q330 96 461 46 L461 459 L213 459 L213 530 L792 530 L792 459 L537 459 L537 296 L833 296 L833 226 L537 226 L537 26 Z" /><glyph glyph-name="uni5BA2" unicode="&#x5ba2;" d="M153 559 L80 559 L80 747 L478 747 Q447 805 433 827 L505 845 Q534 802 563 747 L919 747 L919 559 L844 559 L844 678 L153 678 L153 559 ZM737 229 Q604 268 501 324 Q395 267 278 229 L737 229 ZM700 21 L700 166 L305 166 L305 21 L700 21 ZM353 524 Q408 460 502 403 Q602 465 659 528 L357 528 L353 524 ZM773 558 Q702 451 574 367 Q741 289 961 261 Q939 239 914 191 Q849 199 775 219 L775 -75 L700 -75 L700 -43 L305 -43 L305 -76 L233 -76 L233 214 Q171 195 75 175 Q61 213 39 240 Q253 277 432 365 Q355 419 301 480 Q230 425 145 383 Q124 416 95 436 Q288 522 379 660 L459 646 Q451 634 413 587 L710 587 L723 590 L773 558 Z" /><glyph glyph-name="uni5BB6" unicode="&#x5bb6;" d="M159 543 L87 543 L87 748 L462 748 Q444 789 425 821 L501 843 Q533 794 550 748 L919 748 L919 543 L844 543 L844 679 L159 679 L159 543 ZM849 432 Q783 377 695 319 Q772 99 961 26 Q932 0 913 -35 Q724 50 637 282 Q615 267 590 254 Q615 160 601 74 Q587 -8 545 -40 Q504 -75 443 -75 Q421 -75 357 -73 Q357 -38 338 -3 Q398 -8 428 -8 Q470 -8 492 13 Q546 52 531 185 Q350 47 103 -29 Q90 3 64 34 Q347 99 517 254 Q504 298 490 324 Q333 216 119 150 Q100 187 81 208 Q312 263 460 374 Q442 403 412 433 Q293 366 124 315 Q110 345 83 374 Q306 427 440 519 L212 519 L212 584 L787 584 L787 519 L539 519 Q508 492 468 466 Q538 396 570 313 Q695 393 788 480 L849 432 Z" /><glyph glyph-name="uni5BFB" unicode="&#x5bfb;" d="M815 428 L172 428 L172 487 L739 487 L739 584 L203 584 L203 645 L739 645 L739 735 L173 735 L173 794 L815 794 L815 428 ZM315 246 Q414 166 463 86 L402 43 Q356 125 258 209 L315 246 ZM951 251 L728 251 L728 28 Q728 -35 685 -51 Q652 -63 505 -63 Q502 -38 481 10 Q590 7 630 9 Q654 9 654 29 L654 251 L71 251 L71 323 L654 323 L654 421 L728 421 L728 323 L951 323 L951 251 Z" /><glyph glyph-name="uni5BFC" unicode="&#x5bfc;" d="M215 732 L215 627 L751 627 L751 732 L215 732 ZM350 394 Q226 394 184 416 Q139 439 139 507 L139 797 L824 797 L824 561 L215 561 L215 508 Q215 476 239 466 Q264 456 345 456 L743 456 Q803 456 822 472 Q841 488 847 543 Q875 527 918 519 Q908 443 875 419 Q841 394 747 394 L350 394 ZM941 222 L722 222 L722 13 Q722 -49 675 -62 Q640 -73 484 -73 Q478 -42 458 -6 Q561 -10 622 -7 Q647 -7 647 14 L647 222 L272 222 Q385 128 431 53 L376 4 Q327 90 214 184 L258 222 L65 222 L65 291 L647 291 L647 368 L722 368 L722 291 L942 291 L941 222 Z" /><glyph glyph-name="uni5C1A" unicode="&#x5c1a;" d="M876 785 Q785 639 728 575 L667 600 Q750 704 802 812 L876 785 ZM257 575 Q216 670 127 777 L190 806 Q280 704 325 609 L257 575 ZM386 313 L386 158 L613 158 L613 313 L386 313 ZM386 93 L386 29 L318 29 L318 377 L683 377 L683 93 L386 93 ZM880 17 Q880 -46 839 -61 Q804 -74 676 -74 Q671 -41 650 -2 Q681 -3 786 -3 Q807 -2 807 18 L807 476 L197 476 L197 -77 L124 -77 L124 546 L460 546 L460 837 L535 837 L535 546 L880 546 L880 17 Z" /><glyph glyph-name="uni5C4A" unicode="&#x5c4a;" d="M218 719 L218 591 L806 591 L806 719 L218 719 ZM218 523 L218 497 Q218 108 101 -76 Q72 -53 36 -38 Q145 132 145 497 L145 787 L879 787 L879 523 L218 523 ZM818 26 L818 154 L618 154 L618 26 L818 26 ZM352 26 L546 26 L546 154 L352 154 L352 26 ZM352 334 L352 215 L546 215 L546 334 L352 334 ZM618 334 L618 215 L818 215 L818 334 L618 334 ZM891 401 L891 -76 L818 -76 L818 -41 L352 -41 L352 -76 L281 -76 L281 401 L546 401 L546 507 L618 507 L618 401 L891 401 Z" /><glyph glyph-name="uni5C55" unicode="&#x5c55;" d="M218 724 L218 622 L813 622 L813 724 L218 724 ZM218 557 L218 498 Q218 109 101 -78 Q70 -51 36 -40 Q144 130 144 498 L144 789 L887 789 L887 557 L218 557 ZM470 288 L669 288 L669 393 L470 393 L470 288 ZM894 179 Q823 125 735 78 Q826 11 958 -16 Q931 -40 912 -78 Q643 -10 540 223 L402 223 L402 19 L617 67 Q611 29 614 5 Q335 -63 313 -78 Q308 -49 284 -15 Q332 12 332 61 L332 223 L224 223 L224 288 L400 288 L400 393 L251 393 L251 457 L400 457 L400 547 L470 547 L470 457 L669 457 L669 547 L739 547 L739 457 L907 457 L907 393 L739 393 L739 288 L947 288 L947 223 L609 223 Q643 161 689 117 Q788 176 838 217 L894 179 Z" /><glyph glyph-name="uni5E08" unicode="&#x5e08;" d="M165 241 L98 241 L98 722 L165 722 L165 241 ZM257 835 L326 835 L326 438 Q326 262 298 158 Q260 16 158 -76 Q136 -46 103 -27 Q197 57 231 185 Q257 279 257 439 L257 835 ZM692 716 L692 594 L906 594 L906 151 Q906 100 876 86 Q851 73 763 73 Q761 98 741 139 Q779 138 822 138 Q837 138 837 152 L837 526 L692 526 L692 -75 L621 -75 L621 526 L488 526 L488 66 L419 66 L419 594 L621 594 L621 716 L384 716 L384 784 L945 784 L945 716 L692 716 Z" /><glyph glyph-name="uni5E38" unicode="&#x5e38;" d="M314 392 L691 392 L691 490 L314 490 L314 392 ZM857 45 Q857 -11 818 -25 Q787 -37 660 -37 Q655 -11 634 31 Q729 28 762 30 Q782 31 782 46 L782 186 L550 186 L550 -77 L475 -77 L475 186 L228 186 L228 -32 L154 -32 L154 254 L475 254 L475 336 L243 336 L243 546 L765 546 L765 336 L550 336 L550 254 L857 254 L857 45 ZM837 802 Q782 728 737 682 L677 707 Q726 765 760 829 L837 802 ZM918 468 L845 468 L845 617 L160 617 L160 468 L89 468 L89 682 L249 682 Q227 731 171 800 L237 827 Q292 769 322 710 L260 682 L469 682 L469 837 L544 837 L544 682 L918 682 L918 468 Z" /><glyph glyph-name="uni5E73" unicode="&#x5e73;" d="M946 274 L536 274 L536 -76 L460 -76 L460 274 L56 274 L56 347 L460 347 L460 696 L108 696 L108 769 L890 769 L890 696 L536 696 L536 347 L946 347 L946 274 ZM243 647 Q317 517 338 422 L268 398 Q244 501 178 627 L243 647 ZM645 416 Q707 520 753 652 L831 630 Q764 481 708 395 L645 416 Z" /><glyph glyph-name="uni5E74" unicode="&#x5e74;&#xf98e;" d="M513 224 L513 422 L289 422 L289 224 L513 224 ZM950 152 L588 152 L588 -77 L513 -77 L513 152 L51 152 L51 224 L215 224 L215 492 L513 492 L513 644 L270 644 Q202 528 118 447 Q78 482 54 494 Q204 625 279 839 L354 821 Q335 773 308 716 L904 716 L904 644 L588 644 L588 492 L881 492 L881 422 L588 422 L588 224 L950 224 L950 152 Z" /><glyph glyph-name="uni2F34" unicode="&#x2f34;&#x5e7f;" d="M937 613 L223 613 L223 400 Q223 70 103 -88 Q73 -51 42 -34 Q145 103 145 400 L145 686 L517 686 Q505 734 469 822 L544 838 Q584 755 598 695 L563 686 L937 686 L937 613 Z" /><glyph glyph-name="uni5EA6" unicode="&#x5ea6;" d="M202 468 Q202 102 106 -77 Q83 -57 40 -43 Q129 122 129 468 L129 737 L514 737 Q487 799 474 824 L547 842 Q579 789 598 737 L945 737 L945 668 L202 668 L202 468 ZM458 494 L458 389 L700 389 L700 494 L458 494 ZM387 329 L387 494 L227 494 L227 556 L387 556 L387 642 L458 642 L458 556 L700 556 L700 642 L773 642 L773 556 L934 556 L934 494 L773 494 L773 329 L387 329 ZM409 204 Q467 132 578 80 Q693 130 754 204 L409 204 ZM865 243 Q801 125 658 47 Q789 2 958 -13 Q936 -35 916 -77 Q723 -55 575 9 Q428 -48 225 -71 Q212 -34 193 -9 Q369 8 497 49 Q395 108 336 190 L371 204 L240 204 L240 265 L805 265 L819 269 L865 243 Z" /><glyph glyph-name="uni5F02" unicode="&#x5f02;" d="M217 726 L217 613 L754 613 L754 726 L217 726 ZM354 367 Q230 367 188 390 Q144 413 144 485 L144 790 L827 790 L827 549 L217 549 L217 486 Q217 453 241 443 Q266 433 349 433 L749 433 Q810 433 829 451 Q847 468 853 530 Q884 510 925 505 Q914 421 881 394 Q847 367 751 367 L354 367 ZM948 157 L724 157 L724 -74 L651 -74 L651 157 L327 157 Q294 2 107 -80 Q90 -51 58 -23 Q214 42 250 157 L56 157 L56 225 L262 225 Q263 236 263 255 L263 335 L336 335 L336 253 Q336 235 335 225 L651 225 L651 334 L724 334 L724 225 L948 225 L948 157 Z" /><glyph glyph-name="uni5F37" unicode="&#x5f37;" d="M887 504 Q863 546 843 573 Q454 538 428 528 Q419 559 404 593 Q424 597 456 635 Q527 709 584 831 L660 812 Q587 691 511 604 L802 628 Q752 688 726 715 L779 748 Q896 628 943 542 L887 504 ZM376 337 L374 304 Q355 4 319 -38 Q296 -64 254 -67 Q209 -71 138 -66 Q136 -27 118 2 Q163 -2 223 -2 Q248 -2 257 8 Q285 36 301 269 L51 269 Q75 409 88 554 L297 554 L297 714 L62 714 L62 783 L366 783 L366 486 L148 486 Q135 380 129 337 L376 337 ZM624 245 L624 384 L489 384 L489 245 L624 245 ZM696 384 L696 245 L835 245 L835 384 L696 384 ZM898 -83 Q889 -59 869 -16 Q676 -32 392 -52 L382 20 Q476 24 624 34 L624 183 L423 183 L423 446 L624 446 L624 543 L696 543 L696 446 L904 446 L904 183 L696 183 L696 39 L833 48 Q792 112 774 136 L835 163 Q930 43 963 -52 L898 -83 Z" /><glyph glyph-name="uni5F62" unicode="&#x5f62;" d="M913 791 Q805 654 628 556 Q595 594 574 608 Q748 694 844 820 L913 791 ZM941 518 Q822 370 637 266 Q609 300 585 319 Q767 411 873 547 L941 518 ZM406 448 L406 705 L245 705 L245 448 L406 448 ZM478 379 L478 -76 L406 -76 L406 379 L244 379 Q237 72 96 -83 Q73 -52 40 -33 Q167 105 174 379 L45 379 L45 448 L175 448 L175 705 L60 705 L60 775 L572 775 L572 705 L478 705 L478 448 L587 448 L587 379 L478 379 ZM965 251 Q837 40 585 -76 Q562 -41 533 -17 Q779 85 895 278 L965 251 Z" /><glyph glyph-name="uni5F71" unicode="&#x5f71;" d="M907 787 Q803 649 645 553 Q615 588 591 604 Q750 693 838 816 L907 787 ZM938 520 Q830 375 644 272 Q619 305 592 325 Q772 413 871 548 L938 520 ZM485 750 L182 750 L182 691 L485 691 L485 750 ZM485 642 L182 642 L182 581 L485 581 L485 642 ZM558 531 L111 531 L111 801 L558 801 L558 531 ZM592 407 L62 407 L62 467 L295 467 L272 512 L340 529 Q361 498 374 467 L592 467 L592 407 ZM220 126 Q180 32 112 -38 Q74 -6 59 3 Q121 61 157 145 L220 126 ZM189 220 L474 220 L474 304 L189 304 L189 220 ZM367 167 L367 2 Q367 -47 335 -60 Q311 -71 218 -71 Q211 -39 195 -10 Q263 -12 280 -10 Q294 -10 294 3 L294 167 L120 167 L120 357 L547 357 L547 167 L367 167 ZM470 146 Q535 65 564 2 L508 -27 Q476 43 418 121 L470 146 ZM959 235 Q842 42 614 -71 Q594 -40 562 -14 Q785 85 891 262 L959 235 Z" /><glyph glyph-name="uni5FAE" unicode="&#x5fae;" d="M616 518 L304 518 L304 755 L357 755 L357 579 L433 579 L433 836 L490 836 L490 579 L562 579 L562 755 L616 755 L616 518 ZM269 811 Q188 681 72 583 Q56 610 31 639 Q141 726 201 837 L269 811 ZM287 615 Q261 561 218 491 L218 -75 L150 -75 L150 393 Q116 346 64 290 Q42 331 20 355 Q147 477 222 638 L287 615 ZM659 189 Q667 157 678 136 Q541 44 522 19 Q515 47 495 81 Q522 98 522 143 L522 259 L393 259 L393 201 Q393 23 302 -74 Q285 -45 254 -24 Q328 53 328 202 L328 318 L583 318 L583 141 L659 189 ZM735 567 L730 547 Q726 533 725 527 Q747 362 786 247 Q836 379 856 567 L735 567 ZM923 567 Q891 311 820 164 Q878 38 965 -15 Q936 -40 917 -73 Q837 -17 782 96 Q714 -11 613 -79 Q593 -43 570 -24 Q683 46 750 169 Q712 276 688 417 Q666 369 653 349 Q629 380 616 393 L616 381 L285 381 L285 445 L616 445 L616 425 Q684 559 712 836 L780 825 Q768 723 750 631 L956 631 L956 567 L923 567 Z" /><glyph glyph-name="uni5FB7" unicode="&#x5fb7;" d="M958 248 L319 248 L319 309 L958 309 L958 248 ZM640 94 Q621 139 569 222 L624 242 Q671 172 698 119 L640 94 ZM691 565 L587 565 L587 430 L691 430 L691 565 ZM746 430 L853 430 L853 565 L746 565 L746 430 ZM532 565 L433 565 L433 430 L532 430 L532 565 ZM577 621 Q584 657 588 693 L329 693 L329 754 L596 754 Q602 795 605 839 L682 835 L669 754 L952 754 L952 693 L660 693 L646 621 L916 621 L916 374 L372 374 L372 621 L577 621 ZM313 808 Q211 670 75 558 Q58 592 38 617 Q176 729 245 835 L313 808 ZM330 596 Q304 543 248 458 L248 -77 L178 -77 L178 363 Q129 301 76 248 Q50 293 32 314 Q174 444 264 620 L330 596 ZM279 -8 Q332 55 369 177 L427 155 Q380 15 337 -40 L279 -8 ZM711 -5 Q735 -5 742 11 Q749 27 752 90 Q773 74 811 66 Q806 -11 787 -37 Q768 -63 717 -63 L571 -63 Q509 -63 487 -46 Q466 -29 466 21 L466 171 L533 171 L533 21 Q533 5 541 0 Q549 -5 578 -5 L711 -5 ZM857 188 Q927 83 959 -3 L899 -30 Q873 54 801 164 L857 188 Z" /><glyph glyph-name="uni6027" unicode="&#x6027;" d="M31 392 Q69 485 83 648 L139 640 Q130 486 89 372 L31 392 ZM175 837 L249 837 L249 -76 L175 -76 L175 837 ZM308 677 Q360 583 381 510 L325 483 Q307 552 256 653 L308 677 ZM945 29 L945 -42 L335 -42 L335 29 L621 29 L621 279 L409 279 L409 348 L621 348 L621 555 L475 555 Q444 462 405 400 Q384 414 339 434 Q420 556 460 791 L532 779 Q516 696 496 626 L621 626 L621 833 L695 833 L695 626 L921 626 L921 555 L695 555 L695 348 L899 348 L899 279 L695 279 L695 29 L945 29 Z" /><glyph glyph-name="uni603B" unicode="&#x603b;" d="M735 565 L267 565 L267 390 L735 390 L735 565 ZM816 320 L189 320 L189 635 L361 635 Q330 714 260 803 L323 832 Q400 741 429 665 L368 635 L573 635 Q645 742 682 835 L758 804 Q700 703 655 635 L816 635 L816 320 ZM465 311 Q584 231 645 154 L591 106 Q525 193 413 269 L465 311 ZM47 12 Q107 84 141 226 L210 212 Q178 64 115 -21 L47 12 ZM648 2 Q685 2 696 20 Q706 37 711 103 Q742 83 781 76 Q773 -9 748 -37 Q723 -65 654 -65 L431 -65 Q343 -65 313 -44 Q284 -24 284 37 L284 242 L360 242 L360 37 Q360 15 374 8 Q387 2 435 2 L648 2 ZM813 248 Q920 127 954 30 L894 -7 Q859 92 756 215 L813 248 Z" /><glyph glyph-name="uni610F" unicode="&#x610f;" d="M65 -15 Q137 49 183 159 L245 131 Q187 7 125 -50 L65 -15 ZM741 441 L263 441 L263 372 L741 372 L741 441 ZM741 323 L263 323 L263 254 L741 254 L741 323 ZM814 203 L467 203 Q557 154 610 105 L564 59 Q515 109 409 171 L443 203 L192 203 L192 492 L814 492 L814 203 ZM608 -6 Q640 -6 649 11 Q658 28 662 95 Q684 80 726 69 Q720 -13 698 -41 Q675 -68 615 -68 L427 -68 Q351 -68 325 -50 Q299 -31 299 22 L299 151 L372 151 L372 22 Q372 5 383 -1 Q394 -6 433 -6 L608 -6 ZM799 168 Q888 79 930 -3 L867 -35 Q834 41 740 142 L799 168 ZM340 702 Q371 651 384 603 L615 603 Q642 653 661 702 L340 702 ZM930 603 L930 542 L76 542 L76 603 L307 603 Q292 651 271 688 L334 702 L121 702 L121 763 L478 763 Q466 791 443 829 L515 844 Q535 817 560 763 L879 763 L879 702 L680 702 L738 689 Q716 646 691 603 L930 603 Z" /><glyph glyph-name="uni2F3E" unicode="&#x2f3e;&#x6237;" d="M768 414 L768 613 L248 613 L248 467 Q248 433 247 414 L768 414 ZM843 683 L843 279 L768 279 L768 344 L244 344 Q222 64 101 -82 Q74 -53 38 -37 Q172 126 172 467 L172 683 L495 683 Q475 749 441 823 L513 842 Q556 757 574 697 L528 683 L843 683 Z" /><glyph glyph-name="uni626C" unicode="&#x626c;" d="M249 297 L249 16 Q249 -41 215 -59 Q184 -74 88 -73 Q85 -40 66 -1 Q109 -2 160 -2 Q177 -2 177 17 L177 275 Q84 244 58 237 L39 308 L177 348 L177 566 L50 566 L50 635 L177 635 L177 836 L249 836 L249 635 L370 635 L370 566 L249 566 L249 370 Q273 377 362 406 L372 337 L249 297 ZM940 517 Q939 491 937 481 Q910 28 859 -31 Q835 -61 792 -65 Q753 -68 686 -65 Q684 -24 668 4 Q718 -1 763 -1 Q786 -1 797 13 Q838 56 865 446 L796 446 Q690 95 426 -75 Q401 -50 369 -32 Q626 116 728 446 L621 446 Q552 255 390 139 Q374 157 335 181 Q485 277 550 446 L501 446 Q428 446 414 434 Q405 464 383 504 Q416 509 486 554 Q589 619 700 719 L379 719 L379 790 L780 790 L796 797 L852 755 Q689 607 546 517 L940 517 Z" /><glyph glyph-name="uni62A5" unicode="&#x62a5;" d="M387 333 L267 297 L267 16 Q267 -46 227 -63 Q196 -77 72 -77 Q69 -44 48 -6 Q129 -9 169 -6 Q193 -6 193 16 L193 275 L57 236 L37 311 Q108 328 193 352 L193 563 L51 563 L51 636 L193 636 L193 836 L267 836 L267 636 L379 636 L379 563 L267 563 L267 373 L377 404 L387 333 ZM598 395 Q646 272 729 170 Q802 271 836 395 L598 395 ZM924 449 Q883 257 778 116 Q863 30 960 -11 Q928 -38 908 -74 Q814 -29 730 59 Q656 -23 553 -78 Q537 -53 504 -24 Q601 25 683 112 Q586 233 527 395 L497 395 L497 -75 L424 -75 L424 803 L893 803 Q893 782 892 771 Q884 581 856 552 Q832 529 783 526 Q734 523 622 528 Q620 562 601 591 Q667 585 752 585 Q784 585 792 593 Q809 609 815 734 L497 734 L497 462 L863 462 L876 465 L924 449 Z" /><glyph glyph-name="uni6301" unicode="&#x6301;" d="M351 334 L242 299 L242 13 Q242 -44 208 -60 Q178 -75 84 -74 Q78 -38 62 -4 Q131 -7 155 -5 Q173 -5 173 13 L173 276 Q117 257 50 237 L31 308 Q83 323 173 351 L173 567 L45 567 L45 636 L173 636 L173 836 L242 836 L242 636 L348 636 L348 567 L242 567 L242 371 L341 402 L351 334 ZM505 238 Q585 143 619 66 L557 29 Q524 112 448 204 L505 238 ZM827 444 L827 334 L950 334 L950 266 L827 266 L827 14 Q827 -49 789 -63 Q757 -76 637 -76 Q632 -43 614 -4 Q705 -7 738 -5 Q757 -4 757 14 L757 266 L374 266 L374 334 L757 334 L757 444 L362 444 L362 513 L625 513 L625 640 L413 640 L413 708 L625 708 L625 832 L696 832 L696 708 L909 708 L909 640 L696 640 L696 513 L957 513 L957 444 L827 444 Z" /><glyph glyph-name="uni6307" unicode="&#x6307;" d="M391 340 L259 299 L259 11 Q259 -46 223 -63 Q193 -78 91 -76 Q86 -41 68 -8 Q146 -10 167 -8 Q186 -8 186 11 L186 277 Q84 247 56 238 L35 310 Q109 329 186 351 L186 566 L47 566 L47 635 L186 635 L186 836 L259 836 L259 635 L376 635 L376 566 L259 566 L259 373 Q330 393 382 409 L391 340 ZM512 296 L512 197 L836 197 L836 296 L512 296 ZM836 31 L836 136 L512 136 L512 31 L836 31 ZM441 360 L909 360 L909 -72 L836 -72 L836 -30 L512 -30 L512 -76 L441 -76 L441 360 ZM814 511 Q855 511 867 533 Q879 555 884 636 Q907 618 952 607 Q944 508 919 476 Q892 443 819 443 L586 443 Q500 443 471 465 Q441 487 441 551 L441 833 L514 833 L514 684 Q724 728 834 777 L891 722 Q761 670 514 623 L514 551 Q514 526 528 518 Q542 511 590 511 L814 511 Z" /><glyph glyph-name="uni63D0" unicode="&#x63d0;" d="M809 747 L479 747 L479 668 L809 668 L809 747 ZM809 616 L479 616 L479 536 L809 536 L809 616 ZM880 479 L411 479 L411 803 L880 803 L880 479 ZM346 333 L236 296 L236 16 Q236 -40 202 -56 Q172 -71 78 -70 Q72 -35 56 -1 Q99 -2 149 -2 Q167 -2 167 17 L167 274 Q124 259 51 237 L33 309 Q76 319 167 348 L167 567 L44 567 L44 636 L167 636 L167 835 L236 835 L236 636 L346 636 L346 567 L236 567 L236 370 L337 401 L346 333 ZM679 10 Q723 4 773 4 Q933 4 966 5 Q951 -20 944 -61 L770 -61 Q650 -61 583 -30 Q502 8 456 106 Q413 -8 336 -77 Q313 -52 281 -32 Q405 65 430 298 L499 290 Q490 223 479 183 Q519 67 609 29 L609 345 L365 345 L365 408 L935 408 L935 345 L679 345 L679 228 L886 228 L886 167 L679 167 L679 10 Z" /><glyph glyph-name="uni63D2" unicode="&#x63d2;" d="M344 324 L235 290 L235 11 Q235 -43 205 -59 Q179 -73 97 -73 Q90 -32 76 -4 Q109 -5 149 -5 Q164 -5 164 11 L164 268 L58 236 L41 307 Q84 318 164 341 L164 567 L58 567 L58 636 L164 636 L164 836 L235 836 L235 636 L330 636 L330 567 L235 567 L235 361 L335 391 L344 324 ZM845 41 L845 180 L730 180 L730 244 L845 244 L845 368 L729 368 L729 432 L912 432 L912 -78 L845 -78 L845 -27 L462 -27 L462 -76 L395 -76 L395 408 Q485 434 546 466 L583 405 Q528 382 462 366 L462 243 L580 243 L580 179 L462 179 L462 41 L623 41 L623 535 L369 535 L369 603 L623 603 L623 720 Q514 709 421 706 Q418 732 402 766 Q719 784 857 830 L896 770 Q815 743 691 729 L691 603 L946 603 L946 535 L691 535 L691 41 L845 41 Z" /><glyph glyph-name="uni64AD" unicode="&#x64ad;" d="M345 355 Q295 335 240 314 L240 10 Q240 -46 205 -63 Q175 -78 81 -77 Q75 -42 59 -8 Q134 -10 153 -8 Q170 -8 170 10 L170 288 L47 242 L31 315 Q143 353 170 363 L170 567 L46 567 L46 636 L170 636 L170 836 L240 836 L240 636 L346 636 L346 567 L240 567 L240 388 L332 421 L345 355 ZM485 713 Q524 647 543 600 L481 577 Q463 627 425 695 L485 713 ZM822 24 L822 110 L672 110 L672 24 L822 24 ZM473 24 L608 24 L608 110 L473 110 L473 24 ZM473 251 L473 166 L608 166 L608 251 L473 251 ZM822 251 L672 251 L672 166 L822 166 L822 251 ZM739 515 Q835 401 972 344 Q941 315 925 289 L891 308 L891 -70 L822 -70 L822 -32 L473 -32 L473 -76 L406 -76 L406 308 L891 308 Q763 382 676 499 L676 330 L608 330 L608 495 Q509 352 350 279 Q327 314 304 332 Q455 395 548 515 L349 515 L349 577 L608 577 L608 733 Q498 723 378 718 Q375 743 361 773 Q705 793 858 830 L902 775 Q808 753 676 740 L676 577 L733 577 Q778 653 806 732 L871 711 Q832 631 800 577 L944 577 L944 515 L739 515 Z" /><glyph glyph-name="uni6570" unicode="&#x6570;" d="M506 790 Q444 694 417 662 L369 685 Q417 754 444 818 L506 790 ZM153 659 Q137 719 91 790 L145 812 Q193 745 210 683 L153 659 ZM259 524 Q177 427 83 378 Q69 408 43 434 Q154 482 236 590 L53 590 L53 652 L259 652 L259 837 L328 837 L328 652 L532 652 L532 590 L344 590 Q442 533 503 488 L462 434 Q418 476 328 540 L328 403 L259 403 L259 524 ZM249 260 Q219 204 205 181 Q257 159 318 128 Q379 184 411 260 L249 260 ZM414 -4 Q373 26 327 52 Q225 -30 80 -68 Q64 -31 45 -11 Q171 17 267 85 Q183 129 114 154 Q144 197 178 260 L74 260 L74 323 L209 323 Q227 362 235 387 L301 375 L291 349 Q285 333 280 323 L443 323 L454 326 L496 309 Q458 184 376 97 Q431 66 460 45 L414 -4 ZM647 575 Q677 405 732 276 Q784 397 807 575 L647 575 ZM878 575 Q842 340 769 199 Q852 52 968 -10 Q939 -34 919 -68 Q805 1 730 132 Q640 -1 493 -80 Q480 -50 452 -20 Q609 57 694 201 Q641 309 606 468 Q576 395 538 337 Q511 364 482 382 Q584 523 628 827 L696 817 Q685 736 662 644 L944 644 L944 575 L878 575 Z" /><glyph glyph-name="uni2F42" unicode="&#x2f42;&#x6587;" d="M497 663 Q477 732 423 820 L500 842 Q557 753 578 689 L497 663 ZM285 588 Q366 390 503 253 Q634 385 709 588 L285 588 ZM793 588 Q709 356 559 201 Q732 55 963 -2 Q938 -26 912 -71 Q669 -2 502 148 Q340 6 86 -75 Q67 -36 40 -6 Q286 64 448 201 Q297 356 208 588 L54 588 L54 661 L950 661 L950 588 L793 588 Z" /><glyph glyph-name="uni2F45" unicode="&#x2f45;&#x65b9;" d="M424 591 Q419 499 410 433 L835 433 Q834 408 832 397 Q807 22 754 -31 Q725 -62 668 -66 Q604 -70 501 -62 Q497 -22 475 10 Q558 3 642 3 Q676 3 689 14 Q732 51 755 361 L399 361 Q342 46 104 -80 Q82 -44 50 -20 Q220 65 288 248 Q331 367 342 591 L72 591 L72 664 L509 664 Q486 734 441 814 L512 842 Q565 750 584 694 L515 664 L932 664 L932 591 L424 591 Z" /><glyph glyph-name="uni2F47" unicode="&#x2f47;&#x65e5;" d="M751 73 L751 352 L255 352 L255 73 L751 73 ZM255 695 L255 425 L751 425 L751 695 L255 695 ZM829 768 L829 -61 L751 -61 L751 0 L255 0 L255 -65 L180 -65 L180 768 L829 768 Z" /><glyph glyph-name="uni65F6" unicode="&#x65f6;" d="M155 686 L155 468 L325 468 L325 686 L155 686 ZM325 175 L325 401 L155 401 L155 175 L325 175 ZM395 107 L155 107 L155 28 L85 28 L85 753 L395 753 L395 107 ZM958 564 L837 564 L837 34 Q837 -37 787 -53 Q748 -68 589 -66 Q580 -22 562 8 Q686 5 735 7 Q763 8 763 34 L763 564 L440 564 L440 637 L763 637 L763 831 L837 831 L837 637 L958 637 L958 564 ZM626 208 Q575 305 474 452 L535 484 Q654 314 691 246 L626 208 Z" /><glyph glyph-name="uni66F4" unicode="&#x66f4;&#xf901;" d="M466 310 Q468 330 468 371 L468 411 L230 411 L230 310 L466 310 ZM230 470 L468 470 L468 570 L230 570 L230 470 ZM544 570 L544 470 L796 470 L796 570 L544 570 ZM796 411 L544 411 L544 370 Q544 348 542 310 L796 310 L796 411 ZM533 248 Q514 149 444 78 Q594 10 964 0 Q940 -34 933 -73 Q549 -56 384 31 Q278 -39 94 -77 Q77 -40 50 -12 Q224 22 315 74 Q241 131 192 215 L254 240 Q305 162 375 116 Q436 168 456 248 L159 248 L159 632 L468 632 L468 716 L68 716 L68 783 L932 783 L932 716 L544 716 L544 632 L869 632 L869 248 L533 248 Z" /><glyph glyph-name="uni6700" unicode="&#x6700;" d="M752 751 L249 751 L249 683 L752 683 L752 751 ZM752 633 L249 633 L249 562 L752 562 L752 633 ZM825 509 L178 509 L178 804 L825 804 L825 509 ZM216 61 Q307 71 397 82 L397 144 L216 144 L216 61 ZM216 392 L216 325 L397 325 L397 392 L216 392 ZM216 199 L397 199 L397 269 L216 269 L216 199 ZM468 29 L468 -77 L397 -77 L397 20 L58 -21 L50 45 L148 55 L148 392 L53 392 L53 454 L945 454 L945 392 L468 392 L468 90 L522 96 L522 36 L468 29 ZM612 269 Q652 180 720 115 Q793 187 831 269 L612 269 ZM917 314 Q873 174 770 73 Q853 13 960 -15 Q935 -39 916 -74 Q803 -39 718 29 Q635 -36 529 -74 Q517 -45 491 -19 Q589 13 670 73 Q594 151 547 263 L567 269 L507 269 L507 330 L861 330 L875 332 L917 314 Z" /><glyph glyph-name="uni6703" unicode="&#x6703;" d="M297 200 L297 132 L711 132 L711 200 L297 200 ZM711 11 L711 79 L297 79 L297 11 L711 11 ZM224 253 L786 253 L786 -72 L711 -72 L711 -42 L297 -42 L297 -75 L224 -75 L224 253 ZM593 373 Q633 446 648 493 L711 473 Q671 395 643 355 L593 373 ZM343 489 Q388 428 403 376 L346 355 Q332 409 290 472 L343 489 ZM230 351 L466 351 L466 500 L230 500 L230 351 ZM767 500 L529 500 L529 351 L767 351 L767 500 ZM166 552 L834 552 L834 300 L166 300 L166 552 ZM636 655 Q558 704 504 755 Q447 699 375 655 L636 655 ZM559 816 Q552 808 545 797 Q691 655 967 589 Q941 567 920 532 Q789 569 675 632 L675 601 L329 601 L329 628 Q220 569 84 526 Q63 561 42 583 Q360 667 494 840 L559 816 Z" /><glyph glyph-name="uni6709" unicode="&#x6709;" d="M747 455 L330 455 L330 354 L747 354 L747 455 ZM747 185 L747 289 L330 289 L330 185 L747 185 ZM399 638 Q363 564 338 522 L820 522 L820 17 Q820 -46 778 -62 Q742 -75 604 -75 Q600 -43 580 -2 Q624 -4 724 -4 Q747 -3 747 17 L747 121 L330 121 L330 -76 L257 -76 L257 406 Q182 312 90 248 Q72 278 43 305 Q212 419 318 638 L67 638 L67 708 L349 708 Q376 777 393 837 L467 819 Q442 740 428 708 L937 708 L937 638 L399 638 Z" /><glyph glyph-name="uni670D" unicode="&#x670d;" d="M330 330 L330 498 L179 498 L179 443 Q179 410 177 330 L330 330 ZM179 731 L179 567 L330 567 L330 731 L179 731 ZM399 12 Q399 -46 365 -63 Q338 -77 233 -77 Q229 -40 211 -6 Q290 -8 311 -6 Q330 -5 330 13 L330 259 L173 259 Q156 41 98 -78 Q75 -57 37 -42 Q111 108 111 443 L111 800 L399 800 L399 12 ZM647 391 Q689 263 756 167 Q822 265 856 391 L647 391 ZM937 447 Q899 250 800 110 Q875 24 967 -21 Q940 -43 919 -78 Q829 -27 757 57 Q690 -22 606 -71 Q586 -37 562 -16 Q646 30 715 111 Q634 228 582 391 L557 391 L557 -77 L487 -77 L487 797 L909 797 L909 605 Q909 551 870 537 Q838 527 713 527 Q709 554 689 590 Q792 588 817 590 Q837 590 837 606 L837 728 L557 728 L557 460 L881 460 L894 462 L937 447 Z" /><glyph glyph-name="uni672C" unicode="&#x672c;" d="M625 553 Q746 270 961 148 Q922 115 904 85 Q677 228 552 553 L538 553 L538 184 L770 184 L770 110 L538 110 L538 -76 L461 -76 L461 110 L229 110 L229 184 L461 184 L461 553 L445 553 Q319 235 95 82 Q72 116 42 141 Q246 266 370 553 L68 553 L68 627 L461 627 L461 836 L538 836 L538 627 L934 627 L934 553 L625 553 Z" /><glyph glyph-name="uni672F" unicode="&#x672f;" d="M784 624 Q726 686 606 773 L660 818 Q778 737 840 677 L784 624 ZM572 512 Q728 254 958 110 Q925 85 899 46 Q705 185 542 436 L542 -77 L462 -77 L462 406 Q308 159 95 38 Q70 75 40 101 Q295 232 441 512 L70 512 L70 585 L462 585 L462 835 L542 835 L542 585 L924 585 L924 512 L572 512 Z" /><glyph glyph-name="uni6821" unicode="&#x6821;" d="M946 621 L401 621 L401 690 L653 690 Q622 758 574 815 L636 842 Q692 781 720 720 L655 690 L946 690 L946 621 ZM769 600 Q892 484 944 395 L889 349 Q838 443 718 561 L769 600 ZM600 565 Q525 434 422 343 Q404 363 370 388 Q470 470 533 595 L600 565 ZM337 265 Q324 299 264 419 L264 -76 L196 -76 L196 408 Q140 208 73 106 Q58 144 33 177 Q132 312 182 556 L66 556 L66 626 L196 626 L196 837 L264 837 L264 626 L376 626 L376 556 L264 556 L264 516 Q302 462 382 321 L337 265 ZM830 402 Q790 260 708 151 Q817 43 962 -6 Q935 -28 912 -70 Q767 -17 660 95 Q558 -11 410 -78 Q387 -42 363 -22 Q512 43 613 150 Q531 255 480 398 L544 416 Q586 298 659 206 Q726 300 759 420 L830 402 Z" /><glyph glyph-name="uni6848" unicode="&#x6848;" d="M153 618 L83 618 L83 761 L468 761 L432 820 L494 842 Q524 801 546 761 L922 761 L922 618 L850 618 L850 698 L153 698 L153 618 ZM379 534 Q320 475 308 464 Q424 447 523 425 Q613 469 662 534 L379 534 ZM852 275 Q731 320 535 363 Q384 300 91 279 Q83 313 63 339 Q284 350 420 388 Q311 409 192 427 Q241 470 300 534 L66 534 L66 595 L353 595 Q391 641 421 686 L487 665 Q469 638 433 595 L937 595 L937 534 L744 534 Q700 459 617 406 Q803 364 914 326 L852 275 ZM597 168 Q741 46 969 -3 Q946 -24 921 -64 Q681 0 534 147 L534 -76 L461 -76 L461 143 Q314 -3 84 -63 Q56 -19 37 -4 Q262 46 403 168 L56 168 L56 231 L461 231 L461 313 L534 313 L534 231 L947 231 L947 168 L597 168 Z" /><glyph glyph-name="uni6C42" unicode="&#x6c42;" d="M893 507 Q788 384 684 299 Q804 139 962 70 Q934 47 908 7 Q677 119 536 421 L536 24 Q536 -46 489 -63 Q451 -78 309 -78 Q302 -42 283 0 Q392 -3 436 -1 Q461 0 461 24 L461 244 Q276 129 94 24 L46 91 Q181 160 461 320 L461 597 L68 597 L68 669 L461 669 L461 834 L536 834 L536 669 L804 669 Q741 723 628 783 L672 830 Q796 767 855 717 L813 669 L936 669 L936 597 L536 597 L536 584 Q578 463 647 354 Q762 460 829 552 L893 507 ZM285 309 Q233 399 121 499 L177 538 Q296 436 345 353 L285 309 Z" /><glyph glyph-name="uni6C99" unicode="&#x6c99;" d="M495 654 Q445 433 364 298 Q345 313 299 336 Q378 457 421 668 L495 654 ZM816 685 Q915 547 959 410 L890 379 Q855 507 754 658 L816 685 ZM890 360 Q772 14 342 -83 Q329 -48 300 -15 Q709 64 822 383 L890 360 ZM659 828 L659 229 L583 229 L583 828 L659 828 ZM136 825 Q255 777 326 720 L282 660 Q214 718 95 771 L136 825 ZM81 553 Q201 501 266 451 L224 390 Q156 446 41 498 L81 553 ZM74 -12 Q172 131 259 307 L314 259 Q227 82 137 -61 L74 -12 Z" /><glyph glyph-name="uni6CE8" unicode="&#x6ce8;" d="M630 651 Q605 727 548 817 L615 841 Q680 744 701 679 L630 651 ZM285 660 Q216 714 98 771 L139 825 Q259 771 328 721 L285 660 ZM229 388 Q169 436 45 497 L85 552 Q200 500 271 451 L229 388 ZM318 256 Q234 89 137 -66 L75 -15 Q161 105 264 305 L318 256 ZM957 25 L957 -46 L304 -46 L304 25 L596 25 L596 282 L374 282 L374 353 L596 353 L596 576 L334 576 L334 647 L934 647 L934 576 L673 576 L673 353 L898 353 L898 282 L673 282 L673 25 L957 25 Z" /><glyph glyph-name="uni6D32" unicode="&#x6d32;" d="M254 316 Q307 394 335 554 L390 537 Q364 367 310 285 L254 316 ZM245 663 Q190 715 85 773 L129 826 Q239 767 291 722 L245 663 ZM210 403 Q159 445 42 505 L84 559 Q192 509 253 464 L210 403 ZM62 -25 Q135 116 200 293 L259 253 Q199 83 129 -64 L62 -25 ZM414 814 L484 814 L484 467 Q484 95 339 -77 Q315 -53 277 -33 Q414 125 414 467 L414 814 ZM541 540 Q594 424 609 325 L552 303 Q536 407 488 520 L541 540 ZM912 815 L912 -76 L840 -76 L840 327 L788 302 Q763 402 693 524 L693 -54 L623 -54 L623 800 L693 800 L693 537 L742 557 Q806 455 840 352 L840 815 L912 815 Z" /><glyph glyph-name="uni6D77" unicode="&#x6d77;" d="M208 379 Q146 434 45 482 L86 533 Q189 488 250 437 L208 379 ZM74 -19 Q146 121 212 305 L269 263 Q204 82 139 -60 L74 -19 ZM140 823 Q245 779 313 723 L269 666 Q207 721 98 772 L140 823 ZM446 656 Q400 562 339 488 Q308 513 274 529 Q382 645 442 837 L515 819 Q502 781 478 724 L935 724 L935 656 L446 656 ZM574 285 Q655 222 695 165 L649 134 Q610 191 531 258 L574 285 ZM794 134 Q803 204 808 288 L447 288 Q440 230 425 134 L794 134 ZM475 495 L457 356 L667 356 Q632 411 557 468 L598 495 Q674 439 711 385 L669 356 L811 356 Q815 406 818 495 L475 495 ZM878 288 L865 134 L932 134 L932 68 L856 68 Q842 -8 822 -32 Q799 -62 753 -67 Q718 -71 627 -65 Q623 -29 608 -2 Q672 -7 724 -7 Q751 -7 761 7 Q773 19 784 68 L342 68 Q361 162 378 288 L286 288 L286 356 L388 356 Q406 498 412 560 L890 560 L881 356 L960 356 L960 288 L878 288 Z" /><glyph glyph-name="uni6E56" unicode="&#x6e56;" d="M241 666 Q186 724 85 773 L126 825 Q229 780 285 724 L241 666 ZM206 406 Q147 460 43 505 L83 558 Q186 519 248 466 L206 406 ZM62 -26 Q132 107 200 291 L259 252 Q202 91 128 -65 L62 -26 ZM358 315 L358 123 L515 123 L515 315 L358 315 ZM358 57 L358 -22 L292 -22 L292 380 L407 380 L407 560 L258 560 L258 629 L407 629 L407 811 L475 811 L475 629 L608 629 L608 560 L475 560 L475 380 L581 380 L581 57 L358 57 ZM858 321 L858 495 L715 495 L715 395 Q715 346 713 321 L858 321 ZM715 732 L715 562 L858 562 L858 732 L715 732 ZM926 14 Q926 -39 892 -55 Q861 -68 760 -67 Q755 -38 738 -4 Q785 -5 839 -5 Q858 -4 858 15 L858 254 L709 254 Q687 33 583 -79 Q562 -54 528 -39 Q649 92 649 395 L649 799 L926 799 L926 14 Z" /><glyph glyph-name="uni7063" unicode="&#x7063;" d="M912 505 Q909 517 898 542 Q746 521 723 512 L706 551 Q724 553 753 584 Q773 604 815 660 Q735 652 722 645 Q714 669 705 684 Q717 685 735 709 Q775 760 797 832 L844 815 Q819 754 777 699 L843 703 Q858 726 870 748 L916 728 Q864 645 793 569 L880 580 Q874 592 862 612 L898 626 Q937 568 950 521 L912 505 ZM818 339 Q816 401 793 472 L833 482 Q856 411 858 352 L818 339 ZM774 472 Q759 392 731 334 Q717 347 692 360 Q716 402 731 482 L774 472 ZM709 691 L469 691 L469 737 L575 737 Q567 766 536 816 L587 829 Q611 795 630 750 L586 737 L709 737 L709 691 ZM499 582 L683 582 L683 541 L499 541 L499 582 ZM683 614 L499 614 L499 656 L683 656 L683 614 ZM545 398 L633 398 L633 464 L545 464 L545 398 ZM496 504 L684 504 L684 357 L496 357 L496 504 ZM445 508 Q439 525 433 539 Q279 517 260 508 Q256 525 243 547 Q261 549 289 582 Q312 603 351 657 Q277 650 259 643 Q251 668 242 681 Q255 683 273 706 Q319 778 334 830 L381 813 Q358 757 314 696 L380 700 Q395 723 407 745 L452 726 Q395 634 329 566 L417 577 Q414 584 408 594 Q400 606 398 610 L436 623 Q470 571 484 524 L445 508 ZM443 496 Q470 436 479 389 L441 372 Q435 418 406 484 L443 496 ZM354 347 Q352 404 332 470 L371 480 Q393 413 395 361 L354 347 ZM200 663 Q158 715 62 774 L105 823 Q200 770 245 717 L200 663 ZM183 404 Q135 457 40 509 L82 559 Q173 515 228 460 L183 404 ZM59 -26 Q127 119 184 292 L242 253 Q185 75 126 -64 L59 -26 ZM311 468 Q292 377 267 330 Q252 343 230 354 Q254 399 268 478 L311 468 ZM909 123 Q908 102 905 93 Q878 -28 839 -57 Q812 -76 764 -76 Q705 -78 611 -72 Q607 -40 590 -15 Q665 -22 744 -22 Q775 -22 786 -14 Q810 2 829 72 L303 72 Q321 120 346 221 L797 221 L797 273 L310 273 L310 321 L866 321 L866 173 L403 173 Q398 152 389 123 L909 123 ZM905 499 Q939 434 948 373 L910 355 Q902 414 869 486 L905 499 Z" /><glyph glyph-name="uni70B9" unicode="&#x70b9;" d="M758 464 L239 464 L239 286 L758 286 L758 464 ZM833 216 L168 216 L168 534 L455 534 L455 837 L529 837 L529 730 L907 730 L907 660 L529 660 L529 534 L833 534 L833 216 ZM45 -43 Q124 24 181 156 L251 138 Q193 1 113 -76 L45 -43 ZM412 135 Q435 22 437 -58 L363 -68 Q363 21 341 129 L412 135 ZM613 143 Q667 38 688 -48 L616 -65 Q598 22 546 128 L613 143 ZM814 162 Q909 44 947 -40 L877 -68 Q840 21 749 137 L814 162 Z" /><glyph glyph-name="uni724C" unicode="&#x724c;" d="M163 435 Q163 382 162 354 L350 354 L350 -76 L284 -76 L284 289 L160 289 Q147 56 95 -78 Q61 -62 32 -53 Q97 109 97 435 L97 815 L163 815 L163 560 L252 560 L252 835 L316 835 L316 560 L391 560 L391 495 L163 495 L163 435 ZM609 416 Q629 461 640 519 L505 519 L505 416 L609 416 ZM505 576 L645 576 Q646 585 646 602 L646 678 L505 678 L505 576 ZM840 678 L715 678 L715 576 L840 576 L840 678 ZM840 519 L710 519 Q701 462 683 416 L840 416 L840 519 ZM954 125 L767 125 L767 -77 L696 -77 L696 125 L387 125 L387 191 L476 191 Q459 212 424 235 Q517 285 571 355 L437 355 L437 739 L588 739 Q606 792 616 836 L699 826 Q677 772 662 739 L911 739 L911 355 L654 355 Q599 260 481 191 L696 191 L696 345 L767 345 L767 191 L954 191 L954 125 Z" /><glyph glyph-name="uni7279" unicode="&#x7279;" d="M389 301 L286 266 L286 -76 L214 -76 L214 243 Q141 219 66 196 L50 270 L214 317 L214 561 L139 561 Q124 463 99 392 Q75 411 42 423 Q84 534 100 760 L163 749 Q155 672 149 632 L214 632 L214 836 L286 836 L286 632 L379 632 L379 561 L286 561 L286 339 L383 369 L389 301 ZM513 248 Q602 161 638 89 L580 51 Q548 121 458 213 L513 248 ZM832 464 L832 345 L949 345 L949 276 L832 276 L832 15 Q832 -48 793 -63 Q758 -76 635 -76 Q630 -39 612 -2 Q706 -5 742 -3 Q762 -2 762 16 L762 276 L406 276 L406 345 L762 345 L762 464 L391 464 L391 534 L641 534 L641 660 L447 660 L447 729 L641 729 L641 837 L712 837 L712 729 L908 729 L908 660 L712 660 L712 534 L954 534 L954 464 L832 464 Z" /><glyph glyph-name="uni734E" unicode="&#x734e;" d="M905 767 Q793 576 405 523 Q395 549 375 573 Q473 583 539 601 Q513 626 466 654 L510 675 Q556 649 592 615 Q634 629 670 644 Q628 677 583 700 L622 722 Q674 698 716 666 Q777 699 812 739 L595 739 Q529 702 424 667 Q406 695 383 710 Q564 760 653 839 L718 825 Q701 808 669 785 L853 785 L866 788 L905 767 ZM192 459 Q192 332 107 263 Q90 276 50 296 Q125 354 125 461 L125 470 L53 470 L53 531 L272 531 L272 607 L100 607 L100 812 L164 812 L164 667 L272 667 L272 834 L341 834 L341 271 L272 271 L272 470 L192 470 L192 459 ZM568 139 Q656 10 965 -6 Q940 -29 922 -74 Q605 -48 503 112 Q414 -26 81 -80 Q69 -53 39 -19 Q344 30 431 139 L49 139 L49 202 L462 202 Q466 221 466 240 L466 301 L539 301 L539 238 Q539 228 537 202 L734 202 Q705 230 654 267 L684 294 L649 294 Q645 318 628 352 Q674 350 725 350 Q741 351 741 365 L741 464 L508 464 Q576 423 615 376 L565 336 Q531 383 457 431 L499 464 L380 464 L380 520 L741 520 L741 590 L812 590 L812 520 L938 520 L938 464 L812 464 L812 363 Q812 316 778 303 Q757 296 700 294 Q763 251 789 224 L768 202 L955 202 L955 139 L568 139 Z" /><glyph glyph-name="uni73AF" unicode="&#x73af;" d="M332 203 L344 137 Q203 84 59 34 L40 103 L163 144 L163 413 L60 413 L60 482 L163 482 L163 700 L45 700 L45 768 L341 768 L341 700 L232 700 L232 482 L320 482 L320 413 L232 413 L232 168 L332 203 ZM731 532 Q874 376 939 271 L878 225 Q815 335 675 494 L731 532 ZM941 772 L941 701 L726 701 Q701 628 674 575 L674 -74 L601 -74 L601 439 Q516 302 414 213 Q394 240 356 271 Q543 421 646 701 L392 701 L392 772 L941 772 Z" /><glyph glyph-name="uni753B" unicode="&#x753b;" d="M906 702 L96 702 L96 771 L906 771 L906 702 ZM322 207 L464 207 L464 338 L322 338 L322 207 ZM322 398 L464 398 L464 528 L322 528 L322 398 ZM672 528 L530 528 L530 398 L672 398 L672 528 ZM672 338 L530 338 L530 207 L672 207 L672 338 ZM259 144 L259 591 L737 591 L737 144 L259 144 ZM907 532 L907 -73 L833 -73 L833 -27 L94 -27 L94 525 L169 525 L169 43 L833 43 L833 532 L907 532 Z" /><glyph glyph-name="uni7570" unicode="&#x7570;&#xf962;" d="M424 47 Q294 -36 107 -85 Q87 -56 59 -28 Q250 20 356 91 L424 47 ZM628 96 Q812 37 940 -24 L882 -80 Q767 -18 582 45 L628 96 ZM370 171 L627 171 L627 284 L370 284 L370 171 ZM370 350 L627 350 L627 441 L370 441 L370 350 ZM224 500 L459 500 L459 590 L224 590 L224 500 ZM224 646 L459 646 L459 735 L224 735 L224 646 ZM772 735 L531 735 L531 646 L772 646 L772 735 ZM772 590 L531 590 L531 500 L772 500 L772 590 ZM944 171 L944 105 L57 105 L57 171 L295 171 L295 284 L120 284 L120 350 L295 350 L295 441 L152 441 L152 794 L847 794 L847 441 L703 441 L703 350 L883 350 L883 284 L703 284 L703 171 L944 171 Z" /><glyph glyph-name="uni2F69" unicode="&#x2f69;&#x767d;" d="M778 70 L778 303 L220 303 L220 70 L778 70 ZM220 603 L220 376 L778 376 L778 603 L220 603 ZM855 677 L855 -72 L778 -72 L778 -4 L220 -4 L220 -77 L147 -77 L147 677 L391 677 Q424 753 446 840 L538 823 Q508 747 472 677 L855 677 Z" /><glyph glyph-name="uni7684" unicode="&#x7684;" d="M368 610 L158 610 L158 401 L368 401 L368 610 ZM368 95 L368 335 L158 335 L158 95 L368 95 ZM322 824 Q278 698 270 677 L436 677 L436 28 L158 28 L158 -51 L90 -51 L90 677 L202 677 Q232 774 242 839 L322 824 ZM925 642 Q904 42 856 -17 Q828 -52 777 -57 Q736 -62 629 -56 Q625 -15 604 17 Q669 11 752 11 Q781 11 793 26 Q836 72 854 611 L600 611 Q554 500 506 436 Q493 448 445 478 Q543 607 598 841 L669 824 Q650 746 626 680 L925 680 L925 642 ZM704 191 Q658 284 552 422 L610 456 Q720 316 767 230 L704 191 Z" /><glyph glyph-name="uni76D1" unicode="&#x76d1;" d="M620 629 Q563 498 491 418 Q458 446 430 463 Q556 593 615 835 L687 820 Q675 774 648 697 L941 697 L941 629 L620 629 ZM689 559 Q821 472 891 399 L831 354 Q767 425 633 520 L689 559 ZM392 362 L319 362 L319 833 L392 833 L392 362 ZM196 393 L124 393 L124 800 L196 800 L196 393 ZM232 18 L366 18 L366 238 L232 238 L232 18 ZM435 238 L435 18 L569 18 L569 238 L435 238 ZM638 238 L638 18 L774 18 L774 238 L638 238 ZM953 18 L953 -50 L50 -50 L50 18 L162 18 L162 302 L847 302 L847 18 L953 18 Z" /><glyph glyph-name="uni793E" unicode="&#x793e;" d="M256 671 Q224 737 162 804 L218 837 Q288 765 315 708 L256 671 ZM379 229 Q346 274 275 353 L275 -76 L202 -76 L202 331 Q130 259 64 216 Q51 261 30 288 Q218 399 320 597 L57 597 L57 665 L359 665 L373 668 L413 639 Q368 529 288 428 L426 290 L379 229 ZM956 35 L956 -38 L385 -38 L385 35 L648 35 L648 453 L432 453 L432 525 L648 525 L648 838 L722 838 L722 525 L935 525 L935 453 L722 453 L722 35 L956 35 Z" /><glyph glyph-name="uni7A7A" unicode="&#x7a7a;" d="M152 492 L79 492 L79 715 L474 715 Q443 784 425 820 L502 842 Q544 764 563 715 L922 715 L922 516 L847 516 L847 647 L152 647 L152 492 ZM610 584 Q796 494 915 414 L866 357 Q762 433 563 536 L610 584 ZM88 412 Q247 469 385 587 L436 543 Q295 418 132 348 L88 412 ZM923 25 L923 -44 L80 -44 L80 25 L460 25 L460 276 L183 276 L183 344 L822 344 L822 276 L537 276 L537 25 L923 25 Z" /><glyph glyph-name="uni2F74" unicode="&#x2f74;&#x7acb;" d="M477 660 Q465 726 429 822 L501 841 Q538 747 553 682 L477 660 ZM903 575 L100 575 L100 648 L903 648 L903 575 ZM332 83 Q312 249 238 503 L312 521 Q384 273 411 102 L332 83 ZM943 40 L943 -34 L57 -34 L57 40 L541 40 Q630 250 689 521 L773 505 Q696 226 621 40 L943 40 Z" /><glyph glyph-name="uni7B2C" unicode="&#x7b2c;" d="M218 694 Q172 617 112 560 Q87 579 50 596 Q159 690 214 841 L283 825 Q270 792 251 751 L507 751 L507 694 L347 694 Q377 637 388 597 L322 575 Q307 634 273 694 L218 694 ZM233 338 L218 245 L458 245 L458 338 L233 338 ZM531 401 L793 401 L793 493 L531 493 L531 401 ZM899 245 L897 214 Q878 22 844 -9 Q823 -32 782 -34 Q739 -37 656 -34 Q654 3 636 35 Q685 30 749 30 Q775 30 785 38 Q806 60 819 181 L531 181 L531 -77 L458 -77 L458 153 Q321 -1 122 -78 Q98 -39 74 -19 Q267 44 399 181 L135 181 Q156 279 170 401 L458 401 L458 493 L135 493 L135 556 L866 556 L866 338 L531 338 L531 245 L899 245 ZM944 751 L944 694 L765 694 Q806 644 826 600 L761 574 Q737 629 684 694 L616 694 Q578 618 530 567 Q498 590 465 605 Q553 690 598 841 L669 825 Q664 809 643 751 L944 751 Z" /><glyph glyph-name="uni7B49" unicode="&#x7b49;" d="M192 690 Q148 616 98 566 Q77 586 37 609 Q133 697 189 841 L259 823 Q245 785 228 753 L488 753 L488 690 L307 690 Q334 638 342 601 L277 577 Q267 621 234 690 L192 690 ZM280 170 Q399 94 451 22 L394 -25 Q342 50 226 128 L280 170 ZM739 324 L739 236 L926 236 L926 171 L739 171 L739 11 Q739 -48 695 -64 Q659 -76 524 -76 Q518 -45 497 -6 Q612 -9 642 -6 Q664 -6 664 12 L664 171 L83 171 L83 236 L664 236 L664 324 L51 324 L51 389 L461 389 L461 478 L149 478 L149 541 L461 541 L461 608 L434 625 Q532 709 577 841 L648 825 Q633 782 618 753 L942 753 L942 690 L729 690 Q766 640 784 599 L720 571 Q703 624 650 690 L582 690 Q550 642 520 610 L536 610 L536 541 L858 541 L858 478 L536 478 L536 389 L952 389 L952 324 L739 324 Z" /><glyph glyph-name="uni7C4D" unicode="&#x7c4d;" d="M607 689 Q572 629 531 587 Q506 609 467 629 Q554 708 594 837 L666 821 L640 752 L932 752 L932 689 L761 689 Q779 655 785 638 L722 612 Q714 646 687 689 L607 689 ZM212 688 Q167 619 114 569 Q76 599 53 611 Q156 697 208 841 L280 823 Q275 808 248 750 L487 750 L487 688 L356 688 Q380 646 390 615 L325 590 Q315 629 281 688 L212 688 ZM303 246 Q351 201 455 93 L412 40 Q372 92 290 179 L290 -78 L220 -78 L220 157 Q154 42 75 -32 Q52 6 35 21 Q134 101 205 246 L58 246 L58 302 L220 302 L220 370 L93 370 L93 426 L220 426 L220 493 L78 493 L78 549 L220 549 L220 625 L290 625 L290 549 L420 549 L420 493 L290 493 L290 426 L407 426 L407 370 L290 370 L290 302 L433 302 L433 246 L303 246 ZM580 214 L580 136 L819 136 L819 214 L580 214 ZM819 6 L819 86 L580 86 L580 6 L819 6 ZM511 267 L890 267 L890 -74 L819 -74 L819 -48 L580 -48 L580 -78 L511 -78 L511 267 ZM641 382 L762 382 L762 488 L641 488 L641 382 ZM937 382 L937 323 L447 323 L447 382 L571 382 L571 488 L467 488 L467 544 L571 544 L571 625 L641 625 L641 544 L762 544 L762 625 L831 625 L831 544 L929 544 L929 488 L831 488 L831 382 L937 382 Z" /><glyph glyph-name="uni7CFB" unicode="&#x7cfb;" d="M362 199 Q269 75 139 -17 Q101 19 74 32 Q204 110 288 225 L362 199 ZM547 289 L547 22 Q547 -37 505 -52 Q473 -65 350 -65 Q346 -33 322 8 Q382 6 452 6 Q472 7 472 23 L472 283 Q170 261 132 246 Q126 278 109 315 Q150 320 248 369 Q313 400 441 477 Q212 463 187 453 Q174 499 165 520 Q191 522 238 560 Q304 601 402 703 Q266 691 129 685 Q126 717 110 750 Q587 776 800 829 L853 768 Q711 734 505 713 Q402 605 296 529 L538 541 Q625 599 697 658 L754 610 Q540 447 306 335 L743 363 Q717 393 663 444 L719 473 Q852 357 923 253 L864 217 Q838 255 794 307 L547 289 ZM694 230 Q840 123 932 26 L869 -19 Q787 75 635 192 L694 230 Z" /><glyph glyph-name="uni7EA2" unicode="&#x7ea2;" d="M42 54 Q125 68 394 124 L401 54 Q208 13 56 -22 L42 54 ZM400 313 Q397 287 402 247 Q99 201 70 186 Q57 233 44 257 Q70 263 125 322 Q159 354 232 451 Q82 435 63 424 Q47 474 37 496 Q60 502 98 557 Q181 667 248 836 L322 805 Q244 639 146 508 L282 521 Q308 558 349 628 L415 587 Q301 408 179 283 L400 313 ZM953 62 L953 -12 L410 -12 L410 62 L640 62 L640 669 L422 669 L422 742 L932 742 L932 669 L719 669 L719 62 L953 62 Z" /><glyph glyph-name="uni7EA6" unicode="&#x7ea6;" d="M411 316 Q409 276 414 253 Q100 201 71 186 Q62 220 48 253 Q74 259 127 317 Q172 367 235 451 Q82 434 64 424 Q55 459 39 494 Q63 499 100 555 Q180 658 248 833 L318 803 Q237 629 143 504 L280 516 Q329 593 347 625 L409 588 Q293 405 177 281 L411 316 ZM43 55 Q149 72 423 123 L428 59 L55 -17 L43 55 ZM690 198 Q628 304 498 414 L549 457 Q690 337 745 245 L690 198 ZM920 654 L919 616 Q902 30 856 -30 Q828 -66 777 -70 Q739 -75 632 -69 Q630 -28 609 2 Q672 -3 751 -3 Q777 -4 791 12 Q832 56 847 585 L555 585 Q514 497 472 439 Q441 464 410 479 Q509 604 566 836 L636 823 Q615 737 583 654 L920 654 Z" /><glyph glyph-name="uni7EBD" unicode="&#x7ebd;" d="M367 319 Q363 284 367 254 Q100 201 70 184 Q64 216 46 255 Q72 261 122 321 Q160 361 223 452 Q84 433 64 422 Q55 458 37 499 Q59 503 97 559 Q180 674 240 840 L315 805 Q238 635 144 508 L269 520 Q309 586 332 629 L398 590 Q290 411 181 286 L367 319 ZM376 85 Q226 35 64 -17 L46 56 Q131 79 363 148 L376 85 ZM618 368 Q589 136 571 22 L763 22 Q783 181 796 368 L618 368 ZM658 725 L643 585 Q633 489 627 439 L801 439 Q810 554 820 725 L658 725 ZM954 22 L954 -51 L355 -51 L355 22 L497 22 Q520 168 545 368 L419 368 L419 439 L553 439 Q570 588 582 725 L409 725 L409 793 L896 793 Q871 326 839 22 L954 22 Z" /><glyph glyph-name="uni7EDF" unicode="&#x7edf;" d="M883 326 Q870 354 843 399 Q443 361 413 348 Q405 383 388 420 Q432 432 450 451 Q491 489 588 625 L408 625 L408 692 L649 692 Q638 730 595 820 L663 839 Q702 768 723 712 L660 692 L944 692 L944 625 L675 625 Q593 510 532 435 L806 458 Q772 510 740 552 L798 581 Q904 441 945 362 L883 326 ZM369 326 Q365 289 371 261 Q98 201 70 184 Q61 217 46 255 Q71 261 121 321 Q157 359 220 452 Q82 432 63 422 Q56 454 37 499 Q60 504 95 559 Q174 668 236 840 L312 805 Q236 636 144 507 L265 520 Q293 562 328 629 L394 590 Q299 425 182 289 L369 326 ZM380 84 Q326 66 213 30 L63 -18 L46 56 Q142 81 368 149 L380 84 ZM584 351 Q577 167 539 82 Q492 -22 364 -73 Q346 -33 319 -14 Q433 29 473 118 Q505 188 511 351 L584 351 ZM863 8 Q879 8 884 32 Q889 57 891 146 Q911 128 955 116 Q950 14 934 -21 Q917 -56 871 -56 L784 -56 Q732 -56 714 -36 Q697 -17 697 38 L697 352 L770 352 L770 38 Q770 18 774 13 Q779 8 795 8 L863 8 Z" /><glyph glyph-name="uni7EED" unicode="&#x7eed;" d="M805 410 Q831 473 849 527 L400 527 L400 592 L618 592 L618 681 L438 681 L438 744 L618 744 L618 836 L691 836 L691 744 L882 744 L882 681 L691 681 L691 592 L875 592 L887 595 L935 582 Q888 441 863 394 L805 410 ZM595 359 Q557 403 474 452 L508 488 Q593 442 632 401 L595 359 ZM438 400 Q524 350 565 308 L528 265 Q486 312 401 362 L438 400 ZM350 333 Q350 300 354 272 Q99 203 70 184 Q66 204 49 247 Q72 252 120 314 Q152 350 216 451 Q85 433 64 422 Q53 464 41 489 Q62 494 98 550 Q179 671 233 835 L298 804 Q223 628 137 502 L255 514 Q302 596 315 626 L373 592 Q278 416 177 291 L350 333 ZM361 106 Q258 65 63 -9 L46 61 Q105 79 349 166 L361 106 ZM688 186 Q627 18 406 -79 Q388 -45 362 -24 Q547 54 612 186 L381 186 L381 252 L635 252 Q647 300 647 370 L647 488 L716 488 L716 369 Q716 302 706 252 L935 252 L935 186 L688 186 ZM733 148 Q880 48 953 -32 L906 -79 Q831 8 687 108 L733 148 Z" /><glyph glyph-name="uni7F8E" unicode="&#x7f8e;" d="M570 191 Q675 29 955 -5 Q924 -40 910 -74 Q607 -24 496 183 Q457 81 367 22 Q269 -42 83 -74 Q73 -42 44 -7 Q349 37 417 191 L85 191 L85 258 L439 258 Q447 290 452 335 L60 335 L60 401 L461 401 L461 485 L150 485 L150 550 L461 550 L461 631 L101 631 L101 698 L306 698 Q280 754 229 814 L293 840 Q352 780 381 714 L345 698 L608 698 Q655 763 694 840 L770 817 Q739 764 690 698 L900 698 L900 631 L535 631 L535 550 L855 550 L855 485 L535 485 L535 401 L946 401 L946 335 L529 335 Q524 293 517 258 L934 258 L934 191 L570 191 Z" /><glyph glyph-name="uni7FA4" unicode="&#x7fa4;" d="M920 820 Q862 692 837 648 L776 664 Q822 750 848 838 L920 820 ZM611 644 Q596 720 543 809 L602 829 Q659 743 674 667 L611 644 ZM219 227 L219 43 L400 43 L400 227 L219 227 ZM269 558 Q261 506 251 460 L388 460 L388 558 L269 558 ZM288 722 Q282 654 278 622 L388 622 L388 722 L288 722 ZM472 293 L472 -23 L219 -23 L219 -77 L151 -77 L151 195 Q118 142 79 104 Q60 136 31 158 Q119 241 166 395 L93 395 L93 460 L183 460 Q193 506 201 558 L47 558 L47 622 L210 622 L219 722 L98 722 L98 787 L457 787 L457 622 L516 622 L516 558 L457 558 L457 395 L235 395 Q219 337 200 293 L472 293 ZM961 156 L766 156 L766 -78 L694 -78 L694 156 L507 156 L507 226 L694 226 L694 371 L544 371 L544 440 L694 440 L694 575 L530 575 L530 643 L938 643 L938 575 L766 575 L766 440 L921 440 L921 371 L766 371 L766 226 L961 226 L961 156 Z" /><glyph glyph-name="uni8005" unicode="&#x8005;" d="M543 517 Q624 577 695 645 L473 645 L473 517 L543 517 ZM744 283 L339 283 L339 184 L744 184 L744 283 ZM744 21 L744 125 L339 125 L339 21 L744 21 ZM568 450 Q488 393 407 346 L820 346 L820 -72 L744 -72 L744 -44 L339 -44 L339 -76 L266 -76 L266 270 Q172 225 83 191 Q68 218 36 252 Q263 332 447 450 L58 450 L58 517 L400 517 L400 645 L145 645 L145 711 L400 711 L400 836 L473 836 L473 711 L720 711 L720 670 Q783 733 834 802 L897 768 Q794 632 654 517 L942 517 L942 450 L568 450 Z" /><glyph glyph-name="uni804C" unicode="&#x804c;" d="M836 695 L557 695 L557 397 L836 397 L836 695 ZM909 326 L485 326 L485 766 L909 766 L909 326 ZM177 156 Q186 157 321 179 L321 318 L177 318 L177 156 ZM177 725 L177 586 L321 586 L321 725 L177 725 ZM177 380 L321 380 L321 523 L177 523 L177 380 ZM390 123 L390 -77 L321 -77 L321 111 L57 66 L41 136 L108 146 L108 725 L52 725 L52 793 L448 793 L448 725 L390 725 L390 190 L453 200 L458 135 L390 123 ZM636 212 Q585 37 480 -76 Q458 -56 419 -34 Q519 63 563 228 L636 212 ZM823 231 Q922 73 956 -38 L886 -67 Q852 48 757 206 L823 231 Z" /><glyph glyph-name="uni8054" unicode="&#x8054;" d="M583 636 Q554 709 486 791 L545 820 Q616 740 646 669 L583 636 ZM171 154 Q180 155 315 177 L315 317 L171 317 L171 154 ZM171 726 L171 586 L315 586 L315 726 L171 726 ZM171 380 L315 380 L315 523 L171 523 L171 380 ZM380 122 L380 -77 L315 -77 L315 110 L57 66 L41 136 Q52 138 72 140 L105 144 L105 726 L50 726 L50 794 L424 794 L424 726 L380 726 L380 188 L458 200 L463 136 L380 122 ZM704 312 Q776 69 962 -14 Q933 -40 913 -76 Q758 3 675 201 Q617 30 448 -86 Q427 -56 393 -33 Q593 96 626 312 L428 312 L428 380 L633 380 Q635 402 635 442 L635 561 L453 561 L453 630 L700 630 Q763 716 808 819 L882 798 Q824 696 779 630 L914 630 L914 561 L709 561 L709 441 Q709 402 707 380 L951 380 L951 312 L704 312 Z" /><glyph glyph-name="uni8058" unicode="&#x8058;" d="M843 686 L716 686 L716 608 L843 608 L843 686 ZM843 555 L716 555 L716 475 L843 475 L843 555 ZM518 475 L647 475 L647 555 L518 555 L518 475 ZM518 608 L647 608 L647 686 L518 686 L518 608 ZM911 420 L452 420 L452 742 L647 742 L647 837 L716 837 L716 742 L911 742 L911 420 ZM307 188 L307 319 L177 319 L177 160 L307 188 ZM177 726 L177 588 L307 588 L307 726 L177 726 ZM177 382 L307 382 L307 525 L177 525 L177 382 ZM434 149 L374 136 L374 -74 L307 -74 L307 121 Q234 104 55 64 L41 133 L111 147 L111 726 L49 726 L49 794 L432 794 L432 726 L374 726 L374 202 L429 214 L434 149 ZM612 290 Q604 257 588 200 L906 200 Q905 179 903 169 Q882 -11 848 -43 Q825 -65 780 -68 Q747 -71 648 -67 Q644 -27 625 1 Q690 -5 753 -5 Q781 -5 790 4 Q814 23 829 138 L493 138 Q514 192 539 290 L406 290 L406 353 L957 353 L957 290 L612 290 Z" /><glyph glyph-name="uni81FA" unicode="&#x81fa;" d="M461 726 L65 726 L65 778 L461 778 L461 837 L534 837 L534 778 L937 778 L937 726 L534 726 L534 674 L863 674 L863 625 L138 625 L138 674 L461 674 L461 726 ZM847 254 L847 344 L151 344 L151 254 L84 254 L84 396 L917 396 L917 254 L847 254 ZM748 539 L252 539 L252 482 L748 482 L748 539 ZM821 583 L821 438 L183 438 L183 583 L821 583 ZM441 255 Q391 222 336 197 L685 202 Q656 221 608 247 L617 255 L441 255 ZM938 1 L938 -54 L64 -54 L64 1 L461 1 L461 54 L160 54 L160 103 L461 103 L461 152 Q242 146 217 139 Q213 163 201 193 Q225 195 255 206 Q297 222 353 255 L181 255 L181 301 L815 301 L815 255 L701 255 Q783 208 843 157 L797 118 Q786 129 748 159 L534 154 L534 103 L847 103 L847 54 L534 54 L534 1 L938 1 Z" /></font>
</defs>
</svg>
