<?xml version="1.0" standalone="no"?><!DOCTYPE svg PUBLIC "-//W3C//DTD SVG 1.1//EN" "http://www.w3.org/Graphics/SVG/1.1/DTD/svg11.dtd" ><svg xmlns="http://www.w3.org/2000/svg"><metadata></metadata><defs><font id="webfonts.fonts.com:Bree W01 Regular:2011" horiz-adv-x="1667"><font-face font-family="BreeW01-Regular" font-weight="400" font-stretch="normal" units-per-em="2048" panose-1="2 0 5 3 0 0 0 2 0 4" ascent="1858" descent="-545" x-height="4" bbox="-213 -545 1626 1462" underline-thickness="102" underline-position="-256" unicode-range="U+0041-007a" /><missing-glyph horiz-adv-x="0"  /><glyph glyph-name="A" unicode="a" d="M25 0 l471 1362 l278 0 l481 -1362 l-266 0 l-123 360 l-479 0 l-121 -360 l-241 0 ZM436 549 l381 0 l-184 584 l-6 0 l-191 -584 Z" /><glyph glyph-name="B" unicode="b" d="M604 1362 q87 0 167 -15 q80 -15 141.5 -54 q61.5 -39 98 -105 q36.5 -66 36.5 -168 q0 -51 -14 -94 q-14 -43 -39 -78.5 q-25 -35.5 -59.5 -64 q-34.5 -28.5 -76.5 -50.5 q58 -15 105.5 -42 q47.5 -27 81.5 -67.5 q34 -40.5 52.5 -94.5 q18.5 -54 18.5 -121 q0 -201 -133.5 -304.5 q-133.5 -103.5 -390.5 -103.5 l-449 0 l0 1362 l461 0 ZM393 193 l193 0 q75 0 126 16.5 q51 16.5 82 45.5 q31 29 44.5 68.5 q13.5 39.5 13.5 86.5 q0 103 -67 157 q-67 54 -189 54 l-203 0 l0 -428 ZM393 803 l152 0 q66 0 113 14.5 q47 14.5 77 40 q30 25.5 44 60 q14 34.5 14 75.5 q0 55 -18 90.5 q-18 35.5 -49.5 55.5 q-31.5 20 -74 27.5 q-42.5 7.5 -92.5 7.5 l-166 0 l0 -371 Z" /><glyph glyph-name="C" unicode="c" d="M713 182 q86 0 164 37 q78 37 155 107 l129 -164 q-102 -96 -215 -141.5 q-113 -45.5 -248 -45.5 q-139 0 -251 43.5 q-112 43.5 -191 131 q-79 87.5 -121.5 218.5 q-42.5 131 -42.5 306 q0 133 25.5 238 q25.5 105 70 184 q44.5 79 104.5 134 q60 55 129 90 q69 35 143 50.5 q74 15.5 147 15.5 q60 0 122 -13 q62 -13 122.5 -42.5 q60.5 -29.5 117.5 -78 q57 -48.5 105 -119.5 l-179 -129 q-65 81 -136.5 126.5 q-71.5 45.5 -164.5 45.5 q-79 0 -143.5 -32.5 q-64.5 -32.5 -110.5 -94.5 q-46 -62 -71 -152.5 q-25 -90.5 -25 -206.5 q0 -117 22 -211 q22 -94 67 -160 q45 -66 113.5 -101.5 q68.5 -35.5 162.5 -35.5 Z" /><glyph glyph-name="D" unicode="d" d="M143 1362 l445 0 q147 0 265 -39 q118 -39 201 -118 q83 -79 128 -197.5 q45 -118.5 45 -278.5 q0 -201 -52 -340 q-52 -139 -139 -225.5 q-87 -86.5 -200.5 -125 q-113.5 -38.5 -237.5 -38.5 l-455 0 l0 1362 ZM393 197 l209 0 q86 0 155 31.5 q69 31.5 117.5 93.5 q48.5 62 74.5 154.5 q26 92.5 26 215.5 q0 138 -31.5 229 q-31.5 91 -85.5 145 q-54 54 -127 75.5 q-73 21.5 -156 21.5 l-182 0 l0 -966 Z" /><glyph glyph-name="E" unicode="e" d="M143 1362 l822 0 l0 -217 l-572 0 l0 -342 l490 0 l0 -217 l-490 0 l0 -369 l586 0 l0 -217 l-836 0 l0 1362 Z" /><glyph glyph-name="F" unicode="f" d="M1016 1362 l0 -217 l-623 0 l0 -350 l516 0 l0 -217 l-516 0 l0 -578 l-250 0 l0 1362 l873 0 Z" /><glyph glyph-name="G" unicode="g" d="M1171 106 q-42 -29 -95 -53 q-53 -24 -114 -41.5 q-61 -17.5 -128.5 -27 q-67.5 -9.5 -139.5 -9.5 q-139 0 -250.5 43 q-111.5 43 -189.5 130.5 q-78 87.5 -120 219.5 q-42 132 -42 310 q0 132 25 236 q25 104 68 183 q43 79 101 134 q58 55 125 89.5 q67 34.5 139 50 q72 15.5 142 15.5 q58 0 120.5 -10 q62.5 -10 125 -37.5 q62.5 -27.5 123 -75 q60.5 -47.5 115.5 -122.5 l-181 -135 q-68 85 -141 127.5 q-73 42.5 -164 42.5 q-80 0 -143.5 -32.5 q-63.5 -32.5 -107.5 -94 q-44 -61.5 -67.5 -151.5 q-23.5 -90 -23.5 -204 q0 -120 20.5 -216 q20.5 -96 64 -162.5 q43.5 -66.5 111 -102 q67.5 -35.5 161.5 -35.5 q30 0 61.5 4 q31.5 4 61 10.5 q29.5 6.5 54.5 15.5 q25 9 40 19 l0 297 l-193 0 l0 189 l442 0 l0 -607 Z" /><glyph glyph-name="H" unicode="h" d="M1225 1362 l0 -1362 l-252 0 l0 588 l-580 0 l0 -588 l-250 0 l0 1362 l250 0 l0 -557 l580 0 l0 557 l252 0 Z" /><glyph glyph-name="I" unicode="i" d="M147 0 l0 1362 l250 0 l0 -1362 l-250 0 Z" /><glyph glyph-name="J" unicode="j" d="M113 260 q45 -32 100.5 -54 q55.5 -22 126.5 -22 q80 0 116 47 q36 47 36 140 l0 991 l249 0 l0 -873 q0 -48 -1 -105 q-1 -57 -7 -110 q-15 -140 -109.5 -219.5 q-94.5 -79.5 -263.5 -79.5 q-63 0 -116.5 9.5 q-53.5 9.5 -97.5 25 q-44 15.5 -78.5 34.5 q-34.5 19 -59.5 38 l105 178 Z" /><glyph glyph-name="K" unicode="k" d="M756 807 l424 -807 l-283 0 l-309 606 l-197 -264 l0 -342 l-248 0 l0 1362 l248 0 l0 -684 l488 684 l266 0 l-389 -555 Z" /><glyph glyph-name="L" unicode="l" d="M145 1362 l250 0 l0 -1145 l578 0 l0 -217 l-828 0 l0 1362 Z" /><glyph glyph-name="M" unicode="m" d="M1174 1362 l272 0 l74 -1362 l-238 0 l-51 938 l-4 0 l-316 -786 l-188 0 l-307 778 l-4 0 l-52 -930 l-237 0 l78 1362 l278 0 l340 -891 l4 0 l351 891 Z" /><glyph glyph-name="N" unicode="n" d="M1221 1362 l0 -1362 l-240 0 l-588 961 l-4 0 l0 -961 l-246 0 l0 1362 l252 0 l574 -946 l4 0 l0 946 l248 0 Z" /><glyph glyph-name="O" unicode="o" d="M1266 678 q0 -176 -42 -308 q-42 -132 -119.5 -219.5 q-77.5 -87.5 -187 -131.5 q-109.5 -44 -243.5 -44 q-137 0 -245 44 q-108 44 -183 132 q-75 88 -114.5 220 q-39.5 132 -39.5 307 q0 131 25 234.5 q25 103.5 68 182 q43 78.5 101.5 134 q58.5 55.5 125.5 90.5 q67 35 140 51 q73 16 144 16 q114 0 217.5 -37.5 q103.5 -37.5 182 -121.5 q78.5 -84 124.5 -219 q46 -135 46 -330 ZM348 688 q0 -58 5.5 -118.5 q5.5 -60.5 20 -116.5 q14.5 -56 39.5 -105.5 q25 -49.5 62.5 -86 q37.5 -36.5 90 -58 q52.5 -21.5 122.5 -21.5 q93 0 155 42 q62 42 99.5 111 q37.5 69 53.5 157 q16 88 16 180 q0 52 -6 110 q-6 58 -20.5 114 q-14.5 56 -39 106.5 q-24.5 50.5 -61 89 q-36.5 38.5 -86.5 61.5 q-50 23 -115 23 q-92 0 -156 -42 q-64 -42 -104 -110.5 q-40 -68.5 -58 -156.5 q-18 -88 -18 -179 Z" /><glyph glyph-name="P" unicode="p" d="M393 0 l-250 0 l0 1362 l469 0 q113 0 203 -26.5 q90 -26.5 153 -79 q63 -52.5 96.5 -131 q33.5 -78.5 33.5 -181.5 q0 -117 -39.5 -204.5 q-39.5 -87.5 -110 -146 q-70.5 -58.5 -168 -87.5 q-97.5 -29 -213.5 -29 l-174 0 l0 -477 ZM541 676 q67 0 122 12.5 q55 12.5 94.5 41 q39.5 28.5 61 75 q21.5 46.5 21.5 115.5 q0 79 -22 126.5 q-22 47.5 -63.5 73.5 q-41.5 26 -101.5 34.5 q-60 8.5 -135 8.5 l-125 0 l0 -487 l148 0 Z" /><glyph glyph-name="Q" unicode="q" d="M561 506 q-86 1 -170 24.5 q-84 23.5 -150.5 73 q-66.5 49.5 -107.5 126 q-41 76.5 -41 183.5 q0 107 39.5 194 q39.5 87 109.5 149 q70 62 167 96 q97 34 213 34 q120 0 228 -37.5 q108 -37.5 189 -116 q81 -78.5 128.5 -200.5 q47.5 -122 47.5 -291 q0 -165 -44.5 -307.5 q-44.5 -142.5 -118.5 -255.5 q67 -62 129 -113 q62 -51 127.5 -90.5 q65.5 -39.5 139 -66.5 q73.5 -27 163.5 -41 l-49 -193 q-93 13 -178 43.5 q-85 30.5 -164.5 75.5 q-79.5 45 -154.5 104 q-75 59 -149 128 q-96 -87 -205.5 -135 q-109.5 -48 -228.5 -48 q-98 0 -165 25 q-67 25 -108 65.5 q-41 40.5 -59 90.5 q-18 50 -18 100 q0 65 26.5 118 q26.5 53 74 90 q47.5 37 112 57 q64.5 20 141.5 20 q99 0 192 -28.5 q93 -28.5 177 -78.5 q23 37 42 87 q19 50 33 104 q14 54 21.5 109.5 q7.5 55.5 7.5 105.5 q0 100 -18 186 q-18 86 -58.5 150 q-40.5 64 -106.5 100.5 q-66 36.5 -161 36.5 q-58 0 -109 -18.5 q-51 -18.5 -89 -52.5 q-38 -34 -60 -83.5 q-22 -49.5 -22 -110.5 q0 -58 17.5 -101.5 q17.5 -43.5 52 -75 q34.5 -31.5 85 -53 q50.5 -21.5 115.5 -36.5 l-43 -143 ZM748 147 q-67 47 -131 68 q-64 21 -113 21 q-68 0 -108 -26.5 q-40 -26.5 -40 -80.5 q0 -19 6.5 -38 q6.5 -19 22.5 -34 q16 -15 41 -24.5 q25 -9.5 63 -9.5 q78 0 143.5 36 q65.5 36 115.5 88 Z" /><glyph glyph-name="R" unicode="r" d="M393 0 l-250 0 l0 1362 l457 0 q113 0 204 -19.5 q91 -19.5 155 -64 q64 -44.5 98.5 -116.5 q34.5 -72 34.5 -177 q0 -77 -21 -136.5 q-21 -59.5 -54.5 -103.5 q-33.5 -44 -76 -73.5 q-42.5 -29.5 -84.5 -46.5 q41 -16 65.5 -44.5 q24.5 -28.5 47.5 -80.5 l225 -500 l-266 0 l-197 430 q-22 48 -51.5 77.5 q-29.5 29.5 -83.5 29.5 l-203 0 l0 -537 ZM598 731 q110 0 175 59.5 q65 59.5 65 176.5 q0 65 -20 104 q-20 39 -58 59.5 q-38 20.5 -94 26.5 q-56 6 -129 6 l-144 0 l0 -432 l205 0 Z" /><glyph glyph-name="S" unicode="s" d="M152 311 q29 -18 72 -39 q43 -21 93 -38.5 q50 -17.5 105 -29 q55 -11.5 108 -11.5 q41 0 80.5 7.5 q39.5 7.5 70.5 28.5 q31 21 50 57.5 q19 36.5 19 94.5 q0 48 -20.5 81 q-20.5 33 -56 56 q-35.5 23 -83 39 q-47.5 16 -101.5 31 q-76 21 -146.5 48.5 q-70.5 27.5 -125 72.5 q-54.5 45 -87 111.5 q-32.5 66.5 -32.5 164.5 q0 94 34.5 168 q34.5 74 95.5 126 q61 52 145.5 79.5 q84.5 27.5 185.5 27.5 q72 0 139 -14.5 q67 -14.5 127 -40.5 q60 -26 111.5 -61 q51.5 -35 91.5 -76 l-133 -166 q-81 66 -166 106 q-85 40 -170 40 q-35 0 -70.5 -8 q-35.5 -8 -64.5 -27.5 q-29 -19.5 -47.5 -51 q-18.5 -31.5 -18.5 -79.5 q0 -48 21 -80.5 q21 -32.5 57.5 -56 q36.5 -23.5 86.5 -41 q50 -17.5 108 -35.5 q70 -23 138.5 -51.5 q68.5 -28.5 123 -74 q54.5 -45.5 88 -112.5 q33.5 -67 33.5 -166 q0 -101 -35 -179 q-35 -78 -98.5 -130.5 q-63.5 -52.5 -153.5 -79.5 q-90 -27 -201 -27 q-75 0 -147.5 13.5 q-72.5 13.5 -135 33 q-62.5 19.5 -110.5 42.5 q-48 23 -74 42 l93 205 Z" /><glyph glyph-name="T" unicode="t" d="M1067 1362 l0 -217 l-397 0 l0 -1145 l-248 0 l0 1145 l-387 0 l0 217 l1032 0 Z" /><glyph glyph-name="U" unicode="u" d="M381 1362 l0 -918 q0 -75 20 -125 q20 -50 56 -80 q36 -30 85 -42.5 q49 -12.5 107 -12.5 q57 0 104 15.5 q47 15.5 81 46.5 q34 31 52.5 78 q18.5 47 18.5 110 l0 928 l250 0 l0 -963 q0 -101 -37.5 -179.5 q-37.5 -78.5 -105 -133 q-67.5 -54.5 -162.5 -83 q-95 -28.5 -209 -28.5 q-126 0 -221 26.5 q-95 26.5 -159 82 q-64 55.5 -96 142 q-32 86.5 -32 206.5 l0 930 l248 0 Z" /><glyph glyph-name="V" unicode="v" d="M473 0 l-453 1362 l254 0 l328 -1061 l10 0 l334 1061 l246 0 l-459 -1362 l-260 0 Z" /><glyph glyph-name="W" unicode="w" d="M836 887 l-7 0 l-211 -887 l-284 0 l-299 1362 l250 0 l211 -1016 l8 0 l209 907 l254 0 l213 -909 l4 0 l196 1018 l246 0 l-293 -1362 l-278 0 l-219 887 Z" /><glyph glyph-name="X" unicode="x" d="M1208 1362 l-430 -641 l475 -721 l-288 0 l-340 516 l-338 -516 l-293 0 l481 719 l-424 643 l293 0 l289 -459 l291 459 l284 0 Z" /><glyph glyph-name="Y" unicode="y" d="M1139 1362 l-447 -842 l0 -520 l-250 0 l0 520 l-442 842 l276 0 l297 -592 l9 0 l292 592 l265 0 Z" /><glyph glyph-name="Z" unicode="z" d="M340 195 l647 0 l0 -195 l-932 0 l0 170 l619 997 l-606 0 l0 195 l897 0 l0 -166 l-625 -1001 Z" /><glyph glyph-name="a" unicode="a" d="M973 197 l18 -197 l-211 0 l-14 109 l-8 2 q-48 -70 -122 -104 q-74 -34 -159 -34 q-108 0 -184.5 36.5 q-76.5 36.5 -124.5 102.5 q-48 66 -70 157.5 q-22 91.5 -22 201.5 q0 135 33.5 244 q33.5 109 100.5 186 q67 77 166.5 118.5 q99.5 41.5 231.5 41.5 q25 0 64.5 -3.5 q39.5 -3.5 88 -12 q48.5 -8.5 102.5 -22 q54 -13.5 110 -34.5 l0 -792 ZM731 856 q-23 11 -64 19 q-41 8 -89 8 q-73 0 -123 -32 q-50 -32 -80.5 -87 q-30.5 -55 -44 -128.5 q-13.5 -73.5 -13.5 -156.5 q0 -64 9 -123.5 q9 -59.5 33 -106 q24 -46.5 65 -74.5 q41 -28 106 -28 q48 0 85 15.5 q37 15.5 63 41 q26 25.5 39.5 57.5 q13.5 32 13.5 65 l0 530 Z" /><glyph glyph-name="b" unicode="b" d="M129 1423 l244 0 l0 -448 q43 40 106 63 q63 23 135 23 q95 0 171 -32.5 q76 -32.5 128.5 -95.5 q52.5 -63 80.5 -155.5 q28 -92.5 28 -212.5 q0 -299 -126.5 -447.5 q-126.5 -148.5 -358.5 -148.5 q-54 0 -112.5 7 q-58.5 7 -113.5 19 q-55 12 -102.5 28 q-47.5 16 -79.5 34 l0 1366 ZM373 184 q29 -15 76 -28 q47 -13 98 -13 q54 0 97 21.5 q43 21.5 73 68 q30 46.5 46.5 120.5 q16.5 74 16.5 179 q0 60 -9 122.5 q-9 62.5 -34 113 q-25 50.5 -70 83 q-45 32.5 -116 32.5 q-35 0 -67.5 -11 q-32.5 -11 -57 -31.5 q-24.5 -20.5 -39 -49 q-14.5 -28.5 -14.5 -62.5 l0 -545 Z" /><glyph glyph-name="c" unicode="c" d="M580 166 q60 0 116 21 q56 21 119 67 l92 -164 q-60 -49 -151 -84 q-91 -35 -205 -35 q-113 0 -201.5 35.5 q-88.5 35.5 -149 103.5 q-60.5 68 -92.5 168.5 q-32 100.5 -32 231.5 q0 103 20 184 q20 81 54.5 142 q34.5 61 80.5 104 q46 43 98.5 70 q52.5 27 109 39 q56.5 12 110.5 12 q50 0 101.5 -10.5 q51.5 -10.5 100.5 -34 q49 -23.5 94 -60.5 q45 -37 81 -90 l-154 -127 q-20 25 -43.5 48 q-23.5 23 -51 40.5 q-27.5 17.5 -59 28 q-31.5 10.5 -65.5 10.5 q-51 0 -94 -21 q-43 -21 -74 -64 q-31 -43 -48.5 -108 q-17.5 -65 -17.5 -153 q0 -80 15 -145 q15 -65 47 -111.5 q32 -46.5 81 -72 q49 -25.5 118 -25.5 Z" /><glyph glyph-name="d" unicode="d" d="M571 1061 q50 0 87.5 -7 q37.5 -7 72.5 -18 l0 387 l242 0 l0 -1222 l18 -201 l-209 0 l-16 111 l-8 2 q-48 -72 -121 -108 q-73 -36 -158 -36 q-120 0 -197.5 43 q-77.5 43 -123.5 114 q-46 71 -64 162 q-18 91 -18 187 q0 131 33 239 q33 108 96.5 185 q63.5 77 155.5 119.5 q92 42.5 210 42.5 ZM731 850 q-28 12 -66.5 22.5 q-38.5 10.5 -86.5 10.5 q-73 0 -123 -32 q-50 -32 -80.5 -85.5 q-30.5 -53.5 -44 -123 q-13.5 -69.5 -13.5 -144.5 q0 -70 9.5 -133 q9.5 -63 33.5 -111 q24 -48 65 -76 q41 -28 103 -28 q47 0 84.5 15.5 q37.5 15.5 64 39.5 q26.5 24 40.5 54 q14 30 14 60 l0 531 Z" /><glyph glyph-name="e" unicode="e" d="M575 1061 q75 0 135.5 -19 q60.5 -19 103 -55.5 q42.5 -36.5 65 -89.5 q22.5 -53 22.5 -121 q0 -79 -30 -136 q-30 -57 -78.5 -96.5 q-48.5 -39.5 -110.5 -64 q-62 -24.5 -126.5 -38 q-64.5 -13.5 -125.5 -18.5 q-61 -5 -108 -5 q3 -50 19 -97 q16 -47 47.5 -84 q31.5 -37 79 -59 q47.5 -22 112.5 -22 q45 0 84 9 q39 9 71.5 22.5 q32.5 13.5 58 29.5 q25.5 16 44.5 29 l75 -162 q-12 -11 -43 -30.5 q-31 -19.5 -77.5 -38 q-46.5 -18.5 -107 -32.5 q-60.5 -14 -132.5 -14 q-127 0 -217.5 38.5 q-90.5 38.5 -148 108.5 q-57.5 70 -84.5 166 q-27 96 -27 212 q0 113 32.5 215.5 q32.5 102.5 95.5 180.5 q63 78 156 124.5 q93 46.5 215 46.5 ZM684 766 q0 57 -33.5 89 q-33.5 32 -89.5 32 q-62 0 -107.5 -27.5 q-45.5 -27.5 -76 -71.5 q-30.5 -44 -46.5 -100 q-16 -56 -18 -113 q28 -1 66 2 q38 3 79.5 11.5 q41.5 8.5 82 22 q40.5 13.5 72 35 q31.5 21.5 51.5 51 q20 29.5 20 69.5 Z" /><glyph glyph-name="f" unicode="f" d="M375 -430 l-244 0 l0 1517 q0 41 4 84.5 q4 43.5 17 85 q13 41.5 37 78.5 q24 37 63.5 65 q39.5 28 96.5 44 q57 16 136 16 q34 0 73 -6 q39 -6 77 -15.5 q38 -9.5 73.5 -22.5 q35.5 -13 61.5 -27 l-59 -164 q-45 23 -98.5 37 q-53.5 14 -96.5 14 q-77 0 -109 -42.5 q-32 -42.5 -32 -127.5 l0 -76 l303 0 l0 -190 l-303 0 l0 -1270 Z" /><glyph glyph-name="g" unicode="g" d="M518 -541 q-85 0 -149.5 19 q-64.5 19 -107.5 54.5 q-43 35.5 -65 86.5 q-22 51 -22 115 q0 61 17 113 q17 52 47.5 97 q30.5 45 72 83 q41.5 38 90.5 71 q-65 9 -124 38.5 q-59 29.5 -104 82.5 q-45 53 -72 132 q-27 79 -27 188 q0 130 38.5 228 q38.5 98 106.5 163.5 q68 65.5 160.5 98 q92.5 32.5 200.5 32.5 q43 0 93.5 -4.5 q50.5 -4.5 103 -14 q52.5 -9.5 104 -24 q51.5 -14.5 96.5 -33.5 l0 -780 q0 -27 0 -61 q0 -34 -0.5 -69.5 q-0.5 -35.5 -2 -70 q-1.5 -34.5 -3.5 -61.5 q-9 -113 -40.5 -202.5 q-31.5 -89.5 -87 -152 q-55.5 -62.5 -136.5 -96 q-81 -33.5 -189 -33.5 ZM733 858 q-73 25 -158 25 q-63 0 -111.5 -24 q-48.5 -24 -81 -67.5 q-32.5 -43.5 -49 -104 q-16.5 -60.5 -16.5 -132.5 q0 -58 6.5 -116 q6.5 -58 29.5 -104.5 q23 -46.5 66.5 -76 q43.5 -29.5 117.5 -29.5 q40 0 76 14 q36 14 62.5 40 q26.5 26 42 63 q15.5 37 15.5 84 l0 428 ZM397 -227 q0 -73 39.5 -104 q39.5 -31 102.5 -31 q60 0 98 27 q38 27 59.5 75 q21.5 48 30 114.5 q8.5 66.5 8.5 145.5 l0 133 q-165 -83 -251.5 -171.5 q-86.5 -88.5 -86.5 -188.5 Z" /><glyph glyph-name="h" unicode="h" d="M123 0 l0 1423 l244 0 l0 -479 q52 60 125 88.5 q73 28.5 151 28.5 q162 0 246 -89 q84 -89 84 -272 l0 -700 l-244 0 l0 657 q0 45 -6 84 q-6 39 -23 68 q-17 29 -48 46 q-31 17 -81 17 q-44 0 -81 -17 q-37 -17 -64.5 -45 q-27.5 -28 -43 -64.5 q-15.5 -36.5 -15.5 -75.5 l0 -670 l-244 0 Z" /><glyph glyph-name="i" unicode="i" d="M133 0 l0 1030 l244 0 l0 -1030 l-244 0 ZM113 1325 q0 28 10 53 q10 25 29 44 q19 19 44.5 29.5 q25.5 10.5 57.5 10.5 q31 0 57 -10.5 q26 -10.5 45 -29.5 q19 -19 29 -44 q10 -25 10 -53 q0 -29 -10.5 -54 q-10.5 -25 -29.5 -43 q-19 -18 -44.5 -28 q-25.5 -10 -56.5 -10 q-65 0 -103 38 q-38 38 -38 97 Z" /><glyph glyph-name="j" unicode="j" d="M133 1030 l244 0 l0 -1100 q0 -74 -10.5 -143.5 q-10.5 -69.5 -44.5 -124.5 q-34 -55 -99 -88 q-65 -33 -174 -33 q-32 0 -66.5 5 q-34.5 5 -69 14 q-34.5 9 -67 22.5 q-32.5 13.5 -59.5 30.5 l74 170 q37 -20 74 -31.5 q37 -11.5 77 -11.5 q29 0 51.5 9 q22.5 9 38 30 q15.5 21 23.5 55.5 q8 34.5 8 85.5 l0 1110 ZM119 1325 q0 28 10 53 q10 25 28.5 44 q18.5 19 44.5 29.5 q26 10.5 58 10.5 q31 0 56.5 -10.5 q25.5 -10.5 44.5 -29.5 q19 -19 29.5 -44 q10.5 -25 10.5 -53 q0 -29 -10.5 -54 q-10.5 -25 -29.5 -43 q-19 -18 -45.5 -28 q-26.5 -10 -57.5 -10 q-32 0 -57.5 10 q-25.5 10 -43.5 28 q-18 18 -28 43 q-10 25 -10 54 Z" /><glyph glyph-name="k" unicode="k" d="M969 813 q0 -45 -11.5 -93 q-11.5 -48 -37.5 -96 q-26 -48 -68 -93 q-42 -45 -102 -82 l239 -449 l-274 0 l-191 358 q-34 -8 -71.5 -13.5 q-37.5 -5.5 -79.5 -8.5 l0 -336 l-244 0 l0 1423 l244 0 l0 -589 l6 0 q22 43 54.5 84 q32.5 41 76 73 q43.5 32 98 51 q54.5 19 121.5 19 q47 0 90.5 -14 q43.5 -14 76.5 -44 q33 -30 53 -77 q20 -47 20 -113 ZM715 776 q0 37 -17.5 63.5 q-17.5 26.5 -58.5 26.5 q-49 0 -94.5 -33.5 q-45.5 -33.5 -81.5 -85.5 q-36 -52 -59.5 -115 q-23.5 -63 -28.5 -122 q78 7 141 29 q63 22 107.5 56.5 q44.5 34.5 68 80.5 q23.5 46 23.5 100 Z" /><glyph glyph-name="l" unicode="l" d="M373 1421 l0 -1085 q0 -48 5.5 -81 q5.5 -33 18 -53.5 q12.5 -20.5 33.5 -30 q21 -9.5 53 -9.5 q31 0 64 9.5 q33 9.5 65 23.5 l54 -164 q-21 -13 -49.5 -24.5 q-28.5 -11.5 -60.5 -19.5 q-32 -8 -66.5 -13 q-34.5 -5 -67.5 -5 q-104 0 -162.5 27.5 q-58.5 27.5 -87.5 72.5 q-29 45 -36 101.5 q-7 56.5 -7 114.5 l0 1136 l244 0 Z" /><glyph glyph-name="m" unicode="m" d="M133 0 l0 852 l-18 178 l202 0 l21 -129 q51 78 125.5 119 q74.5 41 171.5 41 q97 0 169 -38.5 q72 -38.5 116 -125.5 q46 81 124 122.5 q78 41.5 175 41.5 q154 0 239.5 -91 q85.5 -91 85.5 -272 l0 -698 l-244 0 l0 649 q0 45 -5 85.5 q-5 40.5 -21.5 71 q-16.5 30.5 -47 48.5 q-30.5 18 -81.5 18 q-42 0 -76 -16.5 q-34 -16.5 -58 -44 q-24 -27.5 -37 -63.5 q-13 -36 -13 -76 l0 -672 l-244 0 l0 649 q0 42 -4.5 82 q-4.5 40 -20.5 71.5 q-16 31.5 -47 50.5 q-31 19 -84 19 q-43 0 -77 -17 q-34 -17 -58 -45.5 q-24 -28.5 -36.5 -66.5 q-12.5 -38 -12.5 -79 l0 -664 l-244 0 Z" /><glyph glyph-name="n" unicode="n" d="M131 0 l0 852 l-16 178 l204 0 l21 -129 q54 78 133.5 119 q79.5 41 181.5 41 q154 0 240 -87.5 q86 -87.5 86 -268.5 l0 -705 l-244 0 l0 651 q0 47 -5.5 87.5 q-5.5 40.5 -22 70 q-16.5 29.5 -46.5 46.5 q-30 17 -79 17 q-46 0 -84.5 -17.5 q-38.5 -17.5 -66 -46 q-27.5 -28.5 -43 -65.5 q-15.5 -37 -15.5 -77 l0 -666 l-244 0 Z" /><glyph glyph-name="o" unicode="o" d="M535 150 q56 0 96 26.5 q40 26.5 66 74 q26 47.5 38.5 113.5 q12.5 66 12.5 146 q0 86 -11 154.5 q-11 68.5 -35.5 116.5 q-24.5 48 -64.5 74 q-40 26 -98 26 q-56 0 -97 -25 q-41 -25 -67.5 -69.5 q-26.5 -44.5 -39.5 -106.5 q-13 -62 -13 -135 q0 -72 7.5 -142.5 q7.5 -70.5 30.5 -126.5 q23 -56 64.5 -91 q41.5 -35 110.5 -35 ZM74 516 q0 106 20.5 188 q20.5 82 56 142.5 q35.5 60.5 83 101.5 q47.5 41 100.5 66 q53 25 108.5 36 q55.5 11 108.5 11 q38 0 85.5 -5.5 q47.5 -5.5 97 -24 q49.5 -18.5 97 -53 q47.5 -34.5 84.5 -92 q37 -57.5 59.5 -141.5 q22.5 -84 22.5 -202 q0 -147 -37 -255.5 q-37 -108.5 -101.5 -179 q-64.5 -70.5 -152 -105 q-87.5 -34.5 -188.5 -34.5 q-103 0 -185 33.5 q-82 33.5 -139.5 101 q-57.5 67.5 -88.5 170.5 q-31 103 -31 242 Z" /><glyph glyph-name="p" unicode="p" d="M371 -430 l-244 0 l0 1423 q116 35 223.5 51.5 q107.5 16.5 186.5 16.5 q245 0 363 -135.5 q118 -135.5 118 -401.5 q0 -135 -30 -238.5 q-30 -103.5 -86.5 -174 q-56.5 -70.5 -137 -106.5 q-80.5 -36 -180.5 -36 q-60 0 -116.5 17.5 q-56.5 17.5 -96.5 42.5 l0 -459 ZM772 506 q0 360 -280 360 q-28 0 -58.5 -3 q-30.5 -3 -62.5 -11 l0 -631 q40 -26 87 -38.5 q47 -12.5 87 -12.5 q65 0 108.5 29.5 q43.5 29.5 70 77 q26.5 47.5 37.5 107.5 q11 60 11 122 Z" /><glyph glyph-name="q" unicode="q" d="M965 -430 l-244 0 l0 485 l-6 0 q-44 -34 -102.5 -59 q-58.5 -25 -139.5 -25 q-195 0 -296 129 q-101 129 -101 387 q0 132 34.5 238 q34.5 106 100.5 180.5 q66 74.5 160.5 115 q94.5 40.5 214.5 40.5 q80 0 178 -18 q98 -18 201 -58 l0 -1415 ZM721 858 q-26 8 -54.5 12 q-28.5 4 -66.5 4 q-68 0 -120 -28.5 q-52 -28.5 -88 -77.5 q-36 -49 -54.5 -115 q-18.5 -66 -18.5 -141 q0 -44 1.5 -88 q1.5 -44 8.5 -84.5 q7 -40.5 19.5 -76 q12.5 -35.5 35.5 -61 q23 -25.5 56.5 -40.5 q33.5 -15 81.5 -15 q47 0 84 16.5 q37 16.5 62.5 41.5 q25.5 25 39 55 q13.5 30 13.5 57 l0 541 Z" /><glyph glyph-name="r" unicode="r" d="M377 0 l-244 0 l0 864 l-18 166 l200 0 l25 -149 q17 43 43.5 77 q26.5 34 59 56.5 q32.5 22.5 69.5 34.5 q37 12 76 12 q46 0 88 -10.5 q42 -10.5 76 -30.5 l-43 -207 q-34 19 -70 30 q-36 11 -76 11 q-41 0 -75 -15.5 q-34 -15.5 -58 -43.5 q-24 -28 -38 -65.5 q-14 -37.5 -15 -82.5 l0 -647 Z" /><glyph glyph-name="s" unicode="s" d="M113 248 q25 -16 59 -33.5 q34 -17.5 73 -31.5 q39 -14 80.5 -23.5 q41.5 -9.5 80.5 -9.5 q32 0 60.5 7.5 q28.5 7.5 49.5 23 q21 15.5 33 40.5 q12 25 12 60 q0 34 -13.5 58 q-13.5 24 -37.5 40.5 q-24 16.5 -55.5 28 q-31.5 11.5 -67.5 22.5 q-56 16 -112.5 36 q-56.5 20 -102 53 q-45.5 33 -74 84.5 q-28.5 51.5 -28.5 131.5 q0 80 30.5 141 q30.5 61 82 102 q51.5 41 119.5 62 q68 21 142 21 q58 0 111 -11 q53 -11 100.5 -30.5 q47.5 -19.5 87.5 -46.5 q40 -27 72 -58 l-117 -143 q-58 51 -121 81 q-63 30 -128 30 q-28 0 -54 -7 q-26 -7 -46 -21.5 q-20 -14.5 -32 -37 q-12 -22.5 -12 -53.5 q0 -35 15 -59 q15 -24 40 -40.5 q25 -16.5 58 -28 q33 -11.5 69 -22.5 q56 -18 112.5 -40 q56.5 -22 101.5 -57 q45 -35 73.5 -88 q28.5 -53 28.5 -132 q0 -80 -28.5 -141 q-28.5 -61 -79.5 -102.5 q-51 -41.5 -122 -63 q-71 -21.5 -157 -21.5 q-66 0 -125.5 10.5 q-59.5 10.5 -108 26.5 q-48.5 16 -85 34.5 q-36.5 18.5 -56.5 33.5 l72 174 Z" /><glyph glyph-name="t" unicode="t" d="M373 1423 l0 -393 l276 0 l0 -190 l-276 0 l0 -521 q0 -47 9 -77.5 q9 -30.5 26 -49.5 q17 -19 41.5 -26.5 q24.5 -7.5 56.5 -7.5 q42 0 78 13.5 q36 13.5 61 29.5 l62 -158 q-47 -32 -117.5 -52 q-70.5 -20 -143.5 -20 q-80 0 -134.5 15.5 q-54.5 15.5 -89.5 41 q-35 25.5 -54 60 q-19 34.5 -27.5 72 q-8.5 37.5 -10 76.5 q-1.5 39 -1.5 75 l0 1112 l244 0 Z" /><glyph glyph-name="u" unicode="u" d="M977 1030 l0 -858 l16 -172 l-209 0 l-14 121 l-8 0 q-53 -78 -131 -114 q-78 -36 -166 -36 q-338 0 -338 361 l0 698 l244 0 l0 -653 q0 -47 5.5 -86.5 q5.5 -39.5 22.5 -68.5 q17 -29 48.5 -45.5 q31.5 -16.5 82.5 -16.5 q42 0 78.5 17 q36.5 17 64.5 44.5 q28 27.5 44 62.5 q16 35 16 72 l0 674 l244 0 Z" /><glyph glyph-name="v" unicode="v" d="M909 1030 q14 -48 26.5 -103 q12.5 -55 21.5 -112.5 q9 -57.5 14.5 -117 q5.5 -59.5 5.5 -117.5 q0 -141 -31 -254 q-31 -113 -92.5 -192 q-61.5 -79 -154 -121 q-92.5 -42 -214.5 -42 q-181 0 -269.5 88 q-88.5 88 -88.5 277 l0 694 l246 0 l0 -645 q0 -47 3.5 -87.5 q3.5 -40.5 17 -70.5 q13.5 -30 41.5 -47.5 q28 -17.5 77 -17.5 q64 0 107.5 35 q43.5 35 69.5 92 q26 57 37 128.5 q11 71.5 11 145.5 q0 130 -22.5 249 q-22.5 119 -46.5 218 l241 0 Z" /><glyph glyph-name="w" unicode="w" d="M1450 1030 q29 -97 50.5 -212.5 q21.5 -115.5 21.5 -233.5 q0 -140 -27 -253 q-27 -113 -82 -193 q-55 -80 -138.5 -123.5 q-83.5 -43.5 -197.5 -43.5 q-57 0 -101.5 12 q-44.5 12 -78 34.5 q-33.5 22.5 -57.5 53 q-24 30.5 -39 68.5 q-66 -94 -149 -131 q-83 -37 -181 -37 q-166 0 -255 87.5 q-89 87.5 -89 269.5 l0 702 l244 0 l0 -639 q0 -47 3.5 -89 q3.5 -42 17.5 -73.5 q14 -31.5 42 -50 q28 -18.5 76 -18.5 q40 0 74.5 16 q34.5 16 59 43 q24.5 27 38.5 62.5 q14 35.5 14 74.5 l0 674 l244 0 l0 -637 q0 -48 3 -90.5 q3 -42.5 16 -74 q13 -31.5 40.5 -50 q27.5 -18.5 75.5 -18.5 q67 0 107.5 40 q40.5 40 62.5 101.5 q22 61.5 29.5 134.5 q7.5 73 7.5 139 q0 61 -6.5 121 q-6.5 60 -16.5 118 q-10 58 -23 112.5 q-13 54.5 -26 103.5 l240 0 Z" /><glyph glyph-name="x" unicode="x" d="M952 1030 l-331 -495 l350 -535 l-264 0 l-224 354 l-227 -354 l-262 0 l360 532 l-321 498 l260 0 l201 -328 l213 328 l245 0 Z" /><glyph glyph-name="y" unicode="y" d="M975 129 q0 -29 -1 -67.5 q-1 -38.5 -3.5 -78 q-2.5 -39.5 -5.5 -77 q-3 -37.5 -7 -62.5 q-14 -92 -49 -164 q-35 -72 -90.5 -122 q-55.5 -50 -131 -76.5 q-75.5 -26.5 -171.5 -26.5 q-83 0 -145 19 q-62 19 -103.5 54 q-41.5 35 -62.5 84.5 q-21 49.5 -21 111.5 q0 57 18 108 q18 51 47.5 94.5 q29.5 43.5 68.5 80.5 q39 37 81 67 q-63 9 -113.5 33 q-50.5 24 -85.5 65 q-35 41 -54 99 q-19 58 -19 135 l0 624 l244 0 l0 -581 q0 -50 4.5 -92.5 q4.5 -42.5 22 -73.5 q17.5 -31 52 -48.5 q34.5 -17.5 95.5 -17.5 q88 0 138 46 q50 46 50 134 l0 633 l242 0 l0 -901 ZM408 -238 q0 -60 34 -95.5 q34 -35.5 103 -35.5 q54 0 90 23.5 q36 23.5 58.5 66 q22.5 42.5 32 101 q9.5 58.5 9.5 127.5 l0 172 q-68 -32 -127.5 -68 q-59.5 -36 -103.5 -79 q-44 -43 -70 -95.5 q-26 -52.5 -26 -116.5 Z" /><glyph glyph-name="z" unicode="z" d="M233 -193 q0 -35 8.5 -65 q8.5 -30 27 -53 q18.5 -23 47.5 -36 q29 -13 71 -13 q50 0 87.5 20 q37.5 20 63 54.5 q25.5 34.5 38 81.5 q12.5 47 12.5 100 q0 83 -30 140 q-30 57 -89 95 q-59 -31 -103 -69 q-44 -38 -73.5 -80.5 q-29.5 -42.5 -44.5 -87 q-15 -44.5 -15 -87.5 ZM809 877 l-442 -453 l125 -57 q74 -35 133 -80 q59 -45 100.5 -100.5 q41.5 -55.5 63.5 -121.5 q22 -66 22 -143 q0 -98 -29.5 -183 q-29.5 -85 -86 -147.5 q-56.5 -62.5 -138 -98.5 q-81.5 -36 -184.5 -36 q-91 0 -158.5 23 q-67.5 23 -112 65 q-44.5 42 -66.5 101.5 q-22 59.5 -22 132.5 q0 139 80.5 252 q80.5 113 235.5 194 q-50 25 -100 46.5 q-50 21.5 -97 41.5 l0 148 l373 379 l-465 0 l0 190 l768 0 l0 -153 Z" /></font>
</defs>
</svg>
